<?xml version="1.0" standalone="no"?>
<!DOCTYPE svg PUBLIC "-//W3C//DTD SVG 1.1//EN" "http://www.w3.org/Graphics/SVG/1.1/DTD/svg11.dtd" >
<svg xmlns="http://www.w3.org/2000/svg" xmlns:xlink="http://www.w3.org/1999/xlink" version="1.1">
<metadata>
Created by FontForge 20170731 at Thu Aug 17 12:58:23 2017
 By Aleksey,,,
Copyright 2014-2017 Indian Type Foundry (info@indiantypefoundry.com)
</metadata>
<defs>
<font id="Poppins-LightItalic" horiz-adv-x="287" >
  <font-face 
    font-family="Poppins Light"
    font-weight="300"
    font-style="italic"
    font-stretch="normal"
    units-per-em="1000"
    panose-1="0 0 4 0 0 0 0 0 0 0"
    ascent="800"
    descent="-200"
    x-height="546"
    cap-height="705"
    bbox="-517 -564 2653 1053"
    underline-thickness="50"
    underline-position="-150"
    slope="-10"
    unicode-range="U+000D-FB02"
  />
<missing-glyph horiz-adv-x="500" 
d="M500 700v-700h-500v700h500zM80 650l170 -255l170 255h-340zM220 350l-170 255v-510zM450 605l-170 -255l170 -255v510zM250 305l-170 -255h340z" />
    <glyph glyph-name=".notdef" horiz-adv-x="500" 
d="M500 700v-700h-500v700h500zM80 650l170 -255l170 255h-340zM220 350l-170 255v-510zM450 605l-170 -255l170 -255v510zM250 305l-170 -255h340z" />
    <glyph glyph-name=".null" horiz-adv-x="0" 
 />
    <glyph glyph-name="nonmarkingreturn" horiz-adv-x="333" 
 />
    <glyph glyph-name="NULL" horiz-adv-x="0" 
 />
    <glyph glyph-name="NULL" horiz-adv-x="0" 
 />
    <glyph glyph-name="CR" unicode="&#xd;" horiz-adv-x="260" 
 />
    <glyph glyph-name="space" unicode=" " horiz-adv-x="260" 
 />
    <glyph glyph-name="exclam" unicode="!" horiz-adv-x="277" 
d="M242 717l-103 -521h-56l81 521h78zM141 90l-17 -90h-92l16 90h93z" />
    <glyph glyph-name="quotedbl" unicode="&#x22;" horiz-adv-x="270" 
d="M126 796l-43 -193h-49l25 193h67zM246 796l-43 -193h-49l25 193h67z" />
    <glyph glyph-name="numbersign" unicode="#" horiz-adv-x="791" 
d="M612 454l-68 -173h144l-12 -64h-157l-84 -217h-67l84 217h-223l-84 -217h-66l84 217h-158l12 64h171l68 173h-154l11 64h168l86 222h66l-86 -222h223l86 222h67l-86 -222h147l-11 -64h-161zM545 454h-223l-68 -173h223z" />
    <glyph glyph-name="dollar" unicode="$" horiz-adv-x="568" 
d="M431 615q-27 33 -81 41l-48 -269q64 -21 99.5 -37t61.5 -47.5t26 -83.5q0 -12 -4 -40q-8 -48 -38.5 -90.5t-83.5 -69t-125 -26.5h-5l-14 -80h-27l14 81q-85 8 -133.5 56t-48.5 118l1 16h74q-3 -45 26 -85t91 -48l49 280q-63 20 -98 35.5t-61 46.5t-26 81q0 11 4 39
q14 80 81 130t166 50h2l15 87h27l-16 -88q88 -7 132 -55t43 -115h-75q-1 40 -28 73zM323 658h-3q-64 0 -107.5 -32t-53.5 -90q-2 -9 -2 -25q0 -46 31 -71t89 -45zM413 203q0 48 -31.5 73.5t-90.5 45.5l-48 -273h3q68 0 111.5 36.5t53.5 92.5q2 9 2 25z" />
    <glyph glyph-name="percent" unicode="%" horiz-adv-x="621" 
d="M325.5 683q32.5 -31 32.5 -82q0 -14 -3 -29q-12 -64 -58.5 -103t-107.5 -39q-53 0 -85.5 30.5t-32.5 82.5q0 14 3 29q11 64 57.5 103t107.5 39q54 0 86.5 -31zM613 706l-535 -706h-70l535 706h70zM143 496q20 -20 54 -20q40 0 69.5 26.5t37.5 69.5q2 14 2 20q0 34 -20 55
t-55 21q-45 0 -76.5 -34t-31.5 -84q0 -34 20 -54zM518 245.5q32 -30.5 32 -81.5q0 -15 -3 -30q-11 -64 -57 -103.5t-107 -39.5q-54 0 -86.5 31t-32.5 83q0 14 3 29q11 64 57.5 103t107.5 39q54 0 86 -30.5zM336 57.5q20 -20.5 54 -20.5q40 0 69 27t37 70q2 14 2 21
q0 34 -20 54.5t-54 20.5q-45 0 -76.5 -34t-31.5 -84q0 -34 20 -54.5z" />
    <glyph glyph-name="ampersand" unicode="&#x26;" horiz-adv-x="679" 
d="M536 0l-142 195q0 -20 -12 -52q-19 -66 -74.5 -108t-126.5 -42q-79 0 -127.5 44.5t-48.5 120.5q0 22 4 42q11 62 43 107t77 68t94 23q20 0 38 -5l-16 24q-20 28 -30.5 52.5t-10.5 55.5q0 16 3 34q7 40 33 75t68.5 56.5t97.5 21.5q80 0 117 -39t37 -98q0 -12 -1 -18
q0 -26 -6 -50h-66q5 25 5 29q2 9 2 26q0 43 -25.5 67t-71.5 24q-51 0 -84.5 -29.5t-39.5 -70.5q-3 -15 -3 -27q0 -24 8.5 -43.5t26.5 -44.5l305 -438h-74zM356 216q0 36 -18 65t-47.5 45t-63.5 16q-57 0 -100 -36t-55 -104q-3 -16 -3 -31q0 -55 34.5 -86t88.5 -31
q60 0 106 38.5t56 98.5q2 16 2 25z" />
    <glyph glyph-name="quotesingle" unicode="'" horiz-adv-x="156" 
d="M132 796l-46 -193h-49l22 193h73z" />
    <glyph glyph-name="parenleft" unicode="(" horiz-adv-x="375" 
d="M181.5 746.5q98.5 150.5 232.5 242.5h68l-1 -8q-151 -107 -242 -253.5t-122 -324.5q-15 -81 -15 -155q0 -259 175 -424l-1 -7h-69q-80 73 -126 182.5t-46 248.5q0 78 14 155q34 193 132.5 343.5z" />
    <glyph glyph-name="parenright" unicode=")" horiz-adv-x="376" 
d="M195 59.5q-98 -150.5 -233 -242.5h-69l2 7q151 107 242 254t122 325q14 74 14 155q0 260 -175 423l2 8h69q80 -73 126 -182.5t46 -248.5q0 -78 -14 -155q-34 -193 -132 -343.5z" />
    <glyph glyph-name="asterisk" unicode="*" horiz-adv-x="462" 
d="M399 667l24 -64l-158 -57l139 -56l-47 -64l-108 92l-9 -158h-73l44 158l-144 -95l-26 66l157 57l-137 58l50 65l110 -93l11 156h73l-46 -156z" />
    <glyph glyph-name="plus" unicode="+" horiz-adv-x="580" 
d="M539 338h-221l-39 -223h-69l39 223h-220l12 64h220l39 223h69l-39 -223h221z" />
    <glyph glyph-name="comma" unicode="," horiz-adv-x="159" 
d="M109 31q0 -66 -29 -107t-85 -41l6 33q25 0 38 13.5t18 41.5l2 8h-45l13 77h81q1 -9 1 -25z" />
    <glyph glyph-name="hyphen" unicode="-" horiz-adv-x="477" 
d="M458 400l-11 -59h-390l11 59h390z" />
    <glyph glyph-name="period" unicode="." horiz-adv-x="154" 
d="M131 90l-16 -90h-92l15 90h93z" />
    <glyph glyph-name="slash" unicode="/" horiz-adv-x="369" 
d="M455 940l-471 -1107h-68l469 1107h70z" />
    <glyph glyph-name="zero" unicode="0" horiz-adv-x="584" 
d="M47 214q0 -105 45 -161.5t149 -56.5q135 0 205.5 94.5t100.5 265.5q14 78 14 141q0 104 -45 160.5t-149 56.5q-136 0 -206 -94t-100 -264q-14 -79 -14 -142zM436.5 199.5q-24.5 -63.5 -69 -100.5t-115.5 -37q-74 0 -105 41t-31 117q0 60 14 136q16 92 40.5 155t69 100
t115.5 37q74 0 105 -40.5t31 -116.5q0 -59 -14 -135q-16 -93 -40.5 -156.5z" />
    <glyph glyph-name="one" unicode="1" horiz-adv-x="269" 
d="M65 640l11 65h179l-124 -705h-73l113 640h-106z" />
    <glyph glyph-name="two" unicode="2" horiz-adv-x="559" 
d="M318 283.5q126 113.5 144 210.5q4 20 4 43q0 54 -31 86t-98 32q-77 0 -125.5 -47t-63.5 -133h-69q21 118 94.5 179t175.5 61q87 0 138.5 -42t51.5 -124q0 -20 -5 -52q-14 -79 -84 -161.5t-165 -153t-190 -121.5h379l-10 -58h-480l9 50q199 117 325 230.5z" />
    <glyph glyph-name="three" unicode="3" horiz-adv-x="555" 
d="M496 677.5q48 -42.5 48 -111.5q0 -17 -3 -37q-11 -62 -59 -105t-129 -51l-1 -6q66 -17 104.5 -56t38.5 -104q0 -22 -4 -42q-13 -77 -74 -124.5t-163 -47.5q-114 0 -174.5 56.5t-56.5 160.5h69q-2 -72 39 -114t129 -42q69 0 111.5 33t51.5 86q3 17 3 32q0 65 -50.5 99
t-142.5 34h-22l10 59h22q204 0 228 127q3 15 3 28q0 50 -33 79.5t-94 29.5q-66 0 -120 -37.5t-70 -110.5h-69q19 97 91.5 152t179.5 55q89 0 137 -42.5z" />
    <glyph glyph-name="four" unicode="4" horiz-adv-x="584" 
d="M-5 170l11 58l457 480h74l-83 -476h109l-11 -62h-110l-29 -170h-71l29 170h-376zM455 621l-374 -389h306z" />
    <glyph glyph-name="five" unicode="5" horiz-adv-x="594" 
d="M568 649h-374l-46 -261q33 36 87 58t112 22q96 0 142.5 -51t46.5 -133q0 -29 -6 -59q-18 -100 -87 -165t-182 -65q-103 0 -161.5 51t-58.5 139l1 18h69q0 -70 42 -108t116 -38q81 0 130.5 46.5t62.5 122.5q4 21 4 47q0 65 -37 101.5t-107 36.5q-52 0 -103 -24.5
t-81 -65.5h-67l69 390h439z" />
    <glyph glyph-name="six" unicode="6" horiz-adv-x="598" 
d="M364 662q-96 0 -156 -80t-84 -257q25 66 89 104.5t142 38.5q91 0 140.5 -47t49.5 -133q0 -30 -6 -63q-11 -64 -44.5 -116.5t-90.5 -84t-135 -31.5q-119 0 -169 60.5t-50 166.5q0 56 13 129q32 183 105.5 277t206.5 94q101 0 146 -55.5t44 -145.5h-67q-5 143 -134 143z
M114 203q0 -65 39 -107t120 -42q77 0 131.5 45.5t68.5 126.5q5 28 5 49q0 67 -38.5 102t-107.5 35q-46 0 -92 -18.5t-79.5 -56t-42.5 -92.5q-4 -19 -4 -42z" />
    <glyph glyph-name="seven" unicode="7" horiz-adv-x="472" 
d="M510 653l-386 -653h-74l388 646h-389l11 61h459z" />
    <glyph glyph-name="eight" unicode="8" horiz-adv-x="613" 
d="M149 636.5q35 39.5 93 62.5t133 23q100 0 154 -44t54 -116q0 -17 -3 -35q-10 -56 -51.5 -96.5t-113.5 -58.5q62 -16 95.5 -56t33.5 -100q0 -22 -4 -41q-16 -92 -95 -144.5t-201 -52.5q-104 0 -163.5 47t-59.5 131q0 23 4 43q12 66 61 110.5t126 62.5q-56 15 -83.5 50.5
t-27.5 85.5q0 13 4 39q9 50 44 89.5zM170 505q0 -54 39.5 -83.5t107.5 -29.5q78 0 129.5 33.5t62.5 94.5q3 17 3 30q0 55 -39.5 84.5t-107.5 29.5q-77 0 -129 -33.5t-63 -95.5q-3 -16 -3 -30zM91 167q0 -62 43.5 -96t119.5 -34q87 0 145 39t71 109q3 17 3 32q0 63 -45.5 94
t-119.5 31q-82 0 -141.5 -35.5t-72.5 -106.5q-3 -18 -3 -33z" />
    <glyph glyph-name="nine" unicode="9" horiz-adv-x="602" 
d="M145.5 87.5q31.5 -37.5 98.5 -37.5q98 0 160 80.5t87 256.5q-26 -65 -90 -104t-141 -39q-92 0 -141.5 47.5t-49.5 134.5q0 28 6 61q11 64 45 116.5t92 84t136 31.5q118 0 168 -59t50 -163q0 -52 -14 -134q-32 -181 -105.5 -276t-210.5 -95q-98 0 -144.5 56.5t-41.5 145.5
h66q-2 -69 29.5 -106.5zM501 509q0 65 -39 107t-120 42q-77 0 -131.5 -46t-68.5 -128q-5 -28 -5 -48q0 -66 38.5 -101t107.5 -35q46 0 91.5 18.5t79 56.5t43.5 93q4 28 4 41z" />
    <glyph glyph-name="colon" unicode=":" horiz-adv-x="168" 
d="M178 528l-16 -90h-92l15 90h93zM100 90l-15 -90h-93l16 90h92z" />
    <glyph glyph-name="semicolon" unicode=";" horiz-adv-x="213" 
d="M211 527l-16 -90h-92l15 90h93zM112 31q0 -66 -29 -107t-85 -41l6 33q25 0 38 13.5t18 41.5l2 8h-45l13 77h81q1 -9 1 -25z" />
    <glyph glyph-name="less" unicode="&#x3c;" horiz-adv-x="410" 
d="M246 139l-211 231l293 233h88l-293 -233l211 -231h-88z" />
    <glyph glyph-name="equal" unicode="=" horiz-adv-x="580" 
d="M568 504l-11 -64h-510l11 64h510zM532 301l-11 -64h-509l11 64h509z" />
    <glyph glyph-name="greater" unicode="&#x3e;" horiz-adv-x="410" 
d="M76 603h88l211 -233l-293 -231h-88l293 231z" />
    <glyph glyph-name="question" unicode="?" horiz-adv-x="496" 
d="M444.5 682.5q49.5 -44.5 49.5 -123.5q0 -24 -4 -45q-18 -104 -95 -152t-192 -50l-23 -126h-67l31 175h33q94 0 161 32t82 120q4 26 4 37q0 56 -34 87t-94 31q-69 0 -112 -37t-60 -102h-68q21 92 86.5 145t166.5 53q86 0 135.5 -44.5zM177 90l-16 -90h-92l16 90h92z" />
    <glyph glyph-name="at" unicode="@" horiz-adv-x="1106" 
d="M907.5 737.5q88.5 -42.5 133 -120.5t44.5 -184q0 -47 -9 -100q-17 -97 -62.5 -175.5t-106.5 -123.5t-123 -45q-98 0 -98 80q0 23 11 59q-100 -139 -245 -139q-82 0 -129.5 50.5t-47.5 136.5q0 30 8 70q18 89 69.5 160t123.5 111t151 40q95 0 145 -49t50 -129
q0 -48 -18 -101l-49 -144q-8 -23 -8 -42q0 -22 13.5 -31.5t38.5 -9.5q42 0 83.5 33.5t74 97.5t47.5 149q8 43 8 92q0 139 -85.5 218.5t-255.5 79.5q-147 0 -265.5 -64.5t-194 -175.5t-99.5 -249q-9 -55 -9 -104q0 -157 96.5 -237.5t274.5 -82.5l-22 -59q-201 3 -311 96.5
t-110 270.5q0 52 11 116q27 152 117 277t227.5 198t302.5 73q130 0 218.5 -42.5zM595.5 82.5q54.5 31.5 94 90t54.5 134.5q6 30 6 56q0 61 -35.5 96t-109.5 35q-60 0 -113 -31.5t-90 -87.5t-51 -128q-5 -22 -5 -51q0 -66 36 -105.5t101 -39.5q58 0 112.5 31.5z" />
    <glyph glyph-name="A" unicode="A" horiz-adv-x="644" 
d="M452 172h-320l-94 -172h-76l382 689h79l138 -689h-76zM442 228l-72 380l-208 -380h280z" />
    <glyph glyph-name="B" unicode="B" horiz-adv-x="591" 
d="M507 419.5q-44 -41.5 -105 -54.5q55 -11 87.5 -49.5t32.5 -92.5q0 -16 -3 -33q-15 -85 -82.5 -137.5t-177.5 -52.5h-245l124 705h242q93 0 139.5 -37t46.5 -102q0 -16 -3 -36q-12 -69 -56 -110.5zM492 547q0 47 -33 73t-102 26h-158l-46 -256h163q73 0 117.5 34.5
t55.5 94.5q3 15 3 28zM451 226q0 52 -38 81.5t-108 29.5h-161l-49 -277h162q79 0 129.5 36.5t61.5 101.5q3 15 3 28z" />
    <glyph glyph-name="C" unicode="C" horiz-adv-x="765" 
d="M648 650.5q72 -61.5 87 -169.5h-74q-14 76 -71 121t-153 45q-73 0 -139 -36t-111.5 -103t-61.5 -156q-6 -36 -6 -68q0 -105 58.5 -165.5t155.5 -60.5q96 0 169 45.5t114 120.5h74q-53 -108 -146.5 -169.5t-220.5 -61.5q-85 0 -147.5 35t-96 98.5t-33.5 147.5q0 40 7 78
q18 105 74.5 187t140.5 127.5t181 45.5q127 0 199 -61.5z" />
    <glyph glyph-name="D" unicode="D" horiz-adv-x="712" 
d="M584 164.5q-57 -79.5 -148 -122t-209 -42.5h-213l124 705h213q154 0 235 -71t81 -199q0 -41 -7 -82q-19 -109 -76 -188.5zM473.5 139.5q91.5 76.5 115.5 213.5q6 36 6 69q0 106 -65.5 163.5t-194.5 57.5h-137l-102 -580h137q149 0 240.5 76.5z" />
    <glyph glyph-name="E" unicode="E" horiz-adv-x="498" 
d="M199 648l-47 -266h276l-11 -55h-275l-47 -269h305l-10 -58h-376l124 705h376l-10 -57h-305z" />
    <glyph glyph-name="F" unicode="F" horiz-adv-x="496" 
d="M521 705l-10 -57h-312l-47 -269h270l-10 -55h-270l-57 -324h-71l124 705h383z" />
    <glyph glyph-name="G" unicode="G" horiz-adv-x="782" 
d="M648 650.5q72 -60.5 87 -162.5h-73q-15 71 -71.5 115t-144.5 44q-76 0 -143.5 -36t-114.5 -103t-63 -156q-6 -36 -6 -69q0 -107 62.5 -167.5t166.5 -60.5q71 0 136 31.5t112 91.5t67 141h-293l9 53h354l-11 -62q-22 -92 -77.5 -164t-136 -112.5t-176.5 -40.5
q-87 0 -152 35t-99.5 99t-34.5 149q0 41 7 79q18 103 75.5 184t143 126.5t185.5 45.5q119 0 191 -60.5z" />
    <glyph glyph-name="H" unicode="H" horiz-adv-x="676" 
d="M661 705l-124 -705h-70l59 334h-382l-59 -334h-71l124 705h71l-55 -313h382l55 313h70z" />
    <glyph glyph-name="I" unicode="I" horiz-adv-x="223" 
d="M209 705l-124 -705h-71l124 705h71z" />
    <glyph glyph-name="J" unicode="J" horiz-adv-x="467" 
d="M459 705l-95 -535q-15 -80 -70.5 -128.5t-138.5 -48.5q-78 0 -120 40t-42 114q0 21 5 51h70q-4 -19 -4 -41q0 -46 24 -73t75 -27q59 0 90.5 32.5t40.5 80.5l94 535h71z" />
    <glyph glyph-name="K" unicode="K" horiz-adv-x="559" 
d="M210 354l270 -354h-87l-250 331l-58 -331h-71l124 705h71l-58 -330l366 330h87z" />
    <glyph glyph-name="L" unicode="L" horiz-adv-x="423" 
d="M94 56h256l-9 -56h-327l124 705h71z" />
    <glyph glyph-name="M" unicode="M" horiz-adv-x="836" 
d="M820 690l-121 -690h-70l101 578l-341 -578h-62l-139 576l-102 -576h-70l121 690h83l154 -603l363 603h83z" />
    <glyph glyph-name="N" unicode="N" horiz-adv-x="680" 
d="M542 0h-71l-282 589l-104 -589h-71l124 704h71l283 -590l103 590h71z" />
    <glyph glyph-name="O" unicode="O" horiz-adv-x="787" 
d="M604.5 676.5q65.5 -36.5 101 -102t35.5 -152.5q0 -41 -7 -79q-18 -102 -74 -182t-140 -124.5t-182 -44.5q-90 0 -156 36.5t-101 102t-35 152.5q0 41 7 80q18 102 74 181.5t140 124t183 44.5q89 0 154.5 -36.5zM299.5 612.5q-67.5 -35.5 -114 -102t-62.5 -155.5
q-6 -36 -6 -67q0 -107 62 -168.5t165 -61.5q77 0 144.5 35.5t114 102t62.5 154.5q6 36 6 67q0 107 -62.5 169t-165.5 62q-76 0 -143.5 -35.5z" />
    <glyph glyph-name="P" unicode="P" horiz-adv-x="558" 
d="M137 294l-52 -294h-71l124 705h211q104 0 154.5 -41.5t50.5 -116.5q0 -20 -5 -48q-17 -98 -87 -151.5t-185 -53.5h-140zM478 499q4 26 4 38q0 109 -149 109h-134l-52 -292h135q171 0 196 145z" />
    <glyph glyph-name="Q" unicode="Q" horiz-adv-x="787" 
d="M656 154.5q-60 -82.5 -148 -124.5l159 -171h-92l-131 147q-51 -14 -105 -14q-90 0 -156 36.5t-101 102t-35 152.5q0 41 7 80q18 102 74 181.5t140 124t183 44.5q89 0 154.5 -36.5t101 -102t35.5 -152.5q0 -41 -7 -79q-19 -106 -79 -188.5zM489.5 93.5q67.5 35.5 114 102
t62.5 154.5q6 36 6 67q0 107 -62.5 169t-165.5 62q-76 0 -143.5 -35.5t-114 -102t-62.5 -155.5q-6 -36 -6 -67q0 -107 62 -168.5t165 -61.5q77 0 144.5 35.5z" />
    <glyph glyph-name="R" unicode="R" horiz-adv-x="569" 
d="M507.5 662q50.5 -43 50.5 -118q0 -25 -4 -46q-16 -88 -75 -140t-155 -62l148 -296h-80l-142 294h-114l-51 -294h-71l124 705h216q103 0 153.5 -43zM486 532q0 112 -147 112h-140l-53 -297h140q171 0 196 147q4 28 4 38z" />
    <glyph glyph-name="S" unicode="S" horiz-adv-x="557" 
d="M439.5 81q-28.5 -39 -78 -63.5t-116.5 -24.5q-71 0 -121 26t-75 70t-24 95h74q-2 -31 12.5 -62t48.5 -51.5t88 -20.5q63 0 103.5 34t49.5 86q3 17 3 31q0 41 -20.5 67t-50.5 40.5t-82 33.5q-57 21 -90.5 38.5t-57 49.5t-23.5 83q0 24 4 45q12 69 73.5 112t153.5 43
q69 0 116.5 -24t71 -63t25.5 -84h-75q-2 45 -36 80t-105 35q-67 0 -109.5 -35.5t-42.5 -99.5q0 -38 19.5 -62.5t48.5 -39t79 -32.5q57 -20 92 -38t59.5 -51.5t24.5 -87.5q0 -24 -4 -47q-7 -44 -35.5 -83z" />
    <glyph glyph-name="T" unicode="T" horiz-adv-x="507" 
d="M551 705l-10 -57h-201l-114 -648h-70l114 648h-200l10 57h471z" />
    <glyph glyph-name="U" unicode="U" horiz-adv-x="652" 
d="M205 705l-75 -427q-7 -35 -7 -69q0 -77 40.5 -113.5t112.5 -36.5q85 0 143 53t79 166l75 427h70l-75 -427q-26 -143 -107.5 -214t-197.5 -71q-99 0 -155 51.5t-56 154.5q0 38 7 79l76 427h70z" />
    <glyph glyph-name="V" unicode="V" horiz-adv-x="655" 
d="M162 705l117 -623l339 623h77l-386 -705h-87l-137 705h77z" />
    <glyph glyph-name="W" unicode="W" horiz-adv-x="953" 
d="M981 705l-306 -705h-84l-70 604l-283 -604h-84l-58 705h78l38 -618l287 618h79l70 -619l256 619h77z" />
    <glyph glyph-name="X" unicode="X" horiz-adv-x="566" 
d="M325 353l157 -353h-83l-132 297l-223 -297h-81l276 359l-154 346h83l130 -291l222 291h81z" />
    <glyph glyph-name="Y" unicode="Y" horiz-adv-x="571" 
d="M611 705l-303 -430l-48 -275h-71l48 275l-152 430h81l119 -356l245 356h81z" />
    <glyph glyph-name="Z" unicode="Z" horiz-adv-x="523" 
d="M65 59h367l-10 -59h-445l9 56l464 590h-349l10 59h428l-10 -57z" />
    <glyph glyph-name="bracketleft" unicode="[" horiz-adv-x="298" 
d="M351 940l-10 -58h-99l-175 -990h99l-10 -58h-166l195 1106h166z" />
    <glyph glyph-name="backslash" unicode="\" horiz-adv-x="575" 
d="M301 -167l-131 1107h70l129 -1107h-68z" />
    <glyph glyph-name="bracketright" unicode="]" horiz-adv-x="297" 
d="M-54 -166l10 58h100l174 990h-99l10 58h166l-195 -1106h-166z" />
    <glyph glyph-name="asciicircum" unicode="^" horiz-adv-x="604" 
d="M61 171h-71l326 519h64l142 -519h-70l-118 434z" />
    <glyph glyph-name="underscore" unicode="_" horiz-adv-x="583" 
d="M542 -33l-12 -68h-509l13 68h508z" />
    <glyph glyph-name="grave" unicode="`" horiz-adv-x="281" 
d="M291 642l-10 -52l-183 121l11 59z" />
    <glyph glyph-name="a" unicode="a" horiz-adv-x="674" 
d="M489.5 510q51.5 -43 60.5 -114l27 150h69l-97 -546h-69l27 150q-34 -71 -100 -114t-150 -43q-98 0 -155 57.5t-57 158.5q0 33 6 69q15 84 58 146.5t106.5 95.5t137.5 33q85 0 136.5 -43zM205.5 432.5q-65.5 -58.5 -83.5 -159.5q-5 -32 -5 -53q0 -78 45 -121.5t124 -43.5
q58 0 109.5 27t86.5 76.5t46 114.5q5 28 5 50q0 78 -46 123t-123 45q-93 0 -158.5 -58.5z" />
    <glyph glyph-name="b" unicode="b" horiz-adv-x="674" 
d="M15 0l131 740h70l-61 -344q34 71 100 114t150 43q98 0 155 -57t57 -158q0 -30 -6 -65q-15 -85 -59 -148.5t-108 -97.5t-138 -34q-84 0 -134.5 43t-59.5 114l-27 -150h-70zM456 113.5q66 58.5 83 159.5q5 32 5 53q0 78 -44.5 121.5t-124.5 43.5q-58 0 -109.5 -27
t-86.5 -76.5t-46 -114.5q-5 -28 -5 -49q0 -78 46.5 -123.5t123.5 -45.5q92 0 158 58.5z" />
    <glyph glyph-name="c" unicode="c" horiz-adv-x="625" 
d="M529.5 498q59.5 -55 58.5 -146h-74q0 65 -43 102.5t-116 37.5q-53 0 -101 -24t-83.5 -73.5t-48.5 -121.5q-5 -25 -5 -55q0 -81 45 -122.5t116 -41.5q73 0 129.5 37.5t78.5 102.5h74q-32 -91 -110 -146t-182 -55q-102 0 -162.5 58t-60.5 161q0 32 6 66q15 85 59.5 147
t111 95t143.5 33q105 0 164.5 -55z" />
    <glyph glyph-name="d" unicode="d" horiz-adv-x="672" 
d="M667 740l-131 -740h-69l26 150q-33 -71 -99 -114t-150 -43q-97 0 -154.5 58t-57.5 159q0 32 6 68q15 84 58 146.5t106.5 95.5t137.5 33q85 0 136.5 -43t60.5 -114l61 344h69zM192.5 432.5q-65.5 -58.5 -83.5 -159.5q-5 -32 -5 -53q0 -78 45 -121.5t124 -43.5
q58 0 109.5 27t86.5 76.5t46 114.5q4 23 4 49q0 78 -45.5 123.5t-122.5 45.5q-93 0 -158.5 -58.5z" />
    <glyph glyph-name="e" unicode="e" horiz-adv-x="625" 
d="M486 526.5q49 -26.5 74 -71.5t25 -101q0 -25 -4 -46q-5 -29 -14 -51h-451q-4 -32 -4 -45q0 -80 46 -120.5t117 -40.5q73 0 129.5 37t78.5 100h74q-31 -87 -108 -141t-182 -54q-102 0 -162.5 58t-60.5 160q0 31 6 65q15 85 60.5 148t112 96t143.5 33q71 0 120 -26.5z
M516 350q0 72 -45.5 109t-114.5 37q-82 0 -147.5 -51.5t-85.5 -151.5h386q7 29 7 57z" />
    <glyph glyph-name="f" unicode="f" horiz-adv-x="335" 
d="M207.5 711q58.5 46 164.5 42l-10 -62q-76 1 -111.5 -27.5t-47.5 -95.5l-4 -22h137l-11 -62h-137l-85 -484h-71l85 484h-81l11 62h81l5 27q16 92 74.5 138z" />
    <glyph glyph-name="g" unicode="g" horiz-adv-x="673" 
d="M104.5 50q-57.5 58 -57.5 159q0 33 6 69q15 84 58.5 146.5t107 96t137.5 33.5q85 0 136.5 -43t59.5 -115l27 150h69l-99 -559q-13 -76 -55 -133.5t-104 -89t-134 -31.5q-107 0 -166.5 51.5t-67.5 139.5h69q9 -61 51.5 -95.5t118.5 -34.5q52 0 98.5 22.5t78.5 66.5t42 104
l30 163q-35 -71 -101 -114.5t-149 -43.5q-98 0 -155.5 58zM207.5 433.5q-65.5 -58.5 -83.5 -160.5q-5 -30 -5 -52q0 -78 45.5 -121.5t124.5 -43.5q58 0 109.5 27t86.5 76t46 114q4 23 4 48q0 78 -46.5 124.5t-122.5 46.5q-93 0 -158.5 -58.5z" />
    <glyph glyph-name="h" unicode="h" horiz-adv-x="635" 
d="M530.5 511.5q48.5 -44.5 48.5 -130.5q0 -28 -6 -63l-56 -318h-69l55 313q4 23 4 48q0 66 -37 101t-103 35q-76 0 -132 -46t-79 -135l-55 -316h-71l130 740h71l-57 -326q33 69 94.5 105.5t132.5 36.5q81 0 129.5 -44.5z" />
    <glyph glyph-name="i" unicode="i" horiz-adv-x="223" 
d="M153 740q18 16 43 16q20 0 31.5 -10.5t11.5 -27.5q0 -24 -17.5 -40.5t-42.5 -16.5q-20 0 -32 10.5t-12 27.5q0 25 18 41zM194 546l-97 -546h-71l97 546h71z" />
    <glyph glyph-name="j" unicode="j" horiz-adv-x="230" 
d="M153 671.5q-12 10.5 -12 28.5q0 25 18 40.5t44 15.5q20 0 31.5 -10.5t11.5 -27.5q0 -24 -18 -40.5t-43 -16.5q-20 0 -32 10.5zM-112 -196h38q38 0 58.5 17t27.5 59l118 666h70l-118 -670q-24 -134 -160 -134h-45z" />
    <glyph glyph-name="k" unicode="k" horiz-adv-x="465" 
d="M187 278l207 -278h-87l-177 251l-44 -251h-71l130 740h71l-76 -432l259 238h87z" />
    <glyph glyph-name="l" unicode="l" horiz-adv-x="222" 
d="M231 740l-130 -740h-71l130 740h71z" />
    <glyph glyph-name="m" unicode="m" horiz-adv-x="1021" 
d="M916 511.5q47 -44.5 47 -130.5q0 -28 -6 -63l-56 -318h-70l55 313q5 30 5 51q0 63 -35 97t-97 34q-79 0 -135 -52t-73 -153l-52 -290h-69l55 313q5 30 5 49q0 65 -35 99t-98 34q-78 0 -134 -52t-74 -153l-51 -290h-71l97 546h70l-23 -133q32 70 91 106.5t128 36.5
q72 0 117.5 -38t52.5 -111q35 72 97 110.5t132 38.5q80 0 127 -44.5z" />
    <glyph glyph-name="n" unicode="n" horiz-adv-x="635" 
d="M528.5 511q48.5 -45 48.5 -132q0 -28 -6 -61l-57 -318h-69l55 313q5 28 5 49q0 66 -37.5 100.5t-103.5 34.5q-82 0 -139.5 -52.5t-75.5 -154.5l-51 -290h-71l97 546h70l-24 -134q33 70 95 107t133 37q82 0 130.5 -45z" />
    <glyph glyph-name="o" unicode="o" horiz-adv-x="645" 
d="M538 494q63 -59 63 -163q0 -30 -6 -63q-15 -84 -61 -146.5t-113.5 -95.5t-144.5 -33q-105 0 -168.5 59.5t-63.5 163.5q0 29 6 62q15 84 61.5 146.5t114.5 95.5t145 33q104 0 167 -59zM258 468q-50 -24 -86.5 -73.5t-49.5 -121.5q-5 -32 -5 -53q0 -81 47.5 -123t119.5 -42
q54 0 103.5 24t86 73t49.5 121q5 32 5 53q0 81 -47 123.5t-119 42.5q-54 0 -104 -24z" />
    <glyph glyph-name="p" unicode="p" horiz-adv-x="674" 
d="M574 496q57 -57 57 -158q0 -30 -6 -65q-16 -85 -60 -148.5t-107.5 -97.5t-137.5 -34q-84 0 -135 43t-59 114l-73 -408h-70l142 804h70l-26 -150q34 71 100 114t150 43q98 0 155 -57zM469.5 113.5q65.5 58.5 83.5 159.5q5 32 5 53q0 78 -45 121.5t-124 43.5
q-59 0 -110 -27t-86 -76.5t-46 -114.5q-5 -28 -5 -49q0 -78 46.5 -123.5t123.5 -45.5q92 0 157.5 58.5z" />
    <glyph glyph-name="q" unicode="q" horiz-adv-x="672" 
d="M639 546l-141 -804h-70l72 404q-36 -70 -100.5 -111.5t-144.5 -41.5q-101 0 -158.5 58t-57.5 159q0 31 6 67q15 85 59 147t108.5 95t138.5 33q82 0 132 -40t62 -109l25 143h69zM199.5 433q-65.5 -58 -83.5 -161q-5 -32 -5 -53q0 -78 45.5 -121t123.5 -43q57 0 108 26.5
t86.5 76t47.5 115.5q4 23 4 49q0 78 -46.5 123.5t-122.5 45.5q-92 0 -157.5 -58z" />
    <glyph glyph-name="r" unicode="r" horiz-adv-x="370" 
d="M267.5 524q58.5 32 134.5 32l-13 -76h-23q-80 0 -139 -42.5t-76 -138.5v1l-53 -300h-71l97 546h70l-20 -113q35 59 93.5 91z" />
    <glyph glyph-name="s" unicode="s" horiz-adv-x="492" 
d="M413 506q52 -47 51 -127h-70q2 53 -33 87.5t-107 34.5q-55 0 -88.5 -27.5t-33.5 -72.5q0 -29 17.5 -47.5t43 -29t71.5 -23.5q54 -15 87 -29.5t56 -42.5t23 -74q0 -11 -4 -37q-10 -56 -59 -90.5t-127 -34.5q-101 0 -159 46.5t-57 127.5h69q-4 -54 35.5 -88t118.5 -34
q47 0 77.5 22t36.5 57q2 16 2 22q0 32 -18.5 52.5t-45 31.5t-73.5 25q-52 15 -83 28.5t-53 39.5t-22 69q0 15 3 33q10 58 60 93t130 35q100 0 152 -47z" />
    <glyph glyph-name="t" unicode="t" horiz-adv-x="363" 
d="M141 163q-4 -20 -4 -38q0 -35 19.5 -49t62.5 -14h56l-12 -62h-65q-67 0 -99.5 26t-32.5 86q0 20 5 52l57 321h-84l11 61h84l24 138h70l-24 -138h150l-10 -61h-151z" />
    <glyph glyph-name="u" unicode="u" horiz-adv-x="621" 
d="M594 546l-97 -546h-70l24 136q-33 -71 -94.5 -108.5t-133.5 -37.5q-81 0 -129.5 45t-48.5 131q0 29 6 62l56 318h70l-56 -312q-4 -23 -4 -48q0 -67 37 -102t103 -35q82 0 139.5 52.5t75.5 154.5v-3l52 293h70z" />
    <glyph glyph-name="v" unicode="v" horiz-adv-x="547" 
d="M236 79l266 467h76l-317 -546h-80l-123 546h76z" />
    <glyph glyph-name="w" unicode="w" horiz-adv-x="823" 
d="M857 546l-258 -546h-73l-83 465l-247 -465h-74l-64 546h72l46 -473l247 473h72l82 -473l213 473h67z" />
    <glyph glyph-name="x" unicode="x" horiz-adv-x="474" 
d="M277 273l134 -273h-80l-110 224l-179 -224h-78l228 281l-130 265h80l107 -217l175 217h78z" />
    <glyph glyph-name="y" unicode="y" horiz-adv-x="544" 
d="M129 546l110 -455l256 455h78l-464 -804h-79l157 264l-136 540h78z" />
    <glyph glyph-name="z" unicode="z" horiz-adv-x="435" 
d="M67 60h303l-11 -60h-380l11 57l365 430h-282l11 59h362l-11 -57z" />
    <glyph glyph-name="braceleft" unicode="{" horiz-adv-x="348" 
d="M171 329.5q23 -31.5 23 -76.5q0 -18 -3 -36q-7 -38 -26 -86q-13 -35 -20.5 -60t-13.5 -57q-4 -23 -4 -49q0 -62 25.5 -107.5t62.5 -67.5l-2 -7h-72q-29 17 -57 63t-28 116q0 32 5 57q6 38 18.5 72.5t14.5 40.5q21 50 27 86q3 15 3 34q0 79 -88 102l6 36q69 17 97 53.5
t36 82.5q5 26 5 63l-1 60q0 42 6 76q12 66 43 115.5t63.5 78.5t57.5 42h72l-1 -7q-53 -27 -101 -85t-62 -139q-7 -40 -7 -86l1 -57q0 -31 -5 -59q-10 -59 -46.5 -100.5t-98.5 -54.5v-2q47 -10 70 -41.5z" />
    <glyph glyph-name="bar" unicode="|" horiz-adv-x="208" 
d="M61 -101h-71l157 892h71z" />
    <glyph glyph-name="braceright" unicode="}" horiz-adv-x="350" 
d="M184 415q-23 31 -23 75q0 17 3 33q7 38 26 86q25 66 34 116q4 23 4 49q0 63 -25.5 110.5t-60.5 69.5l1 7h72q29 -17 57 -63t28 -116q0 -32 -5 -57q-6 -38 -18.5 -72.5t-14.5 -40.5q-21 -50 -27 -86q-3 -15 -3 -34q0 -80 88 -102l-6 -36q-68 -15 -96.5 -52.5t-36.5 -83.5
q-5 -26 -5 -63l1 -60q0 -42 -6 -76q-12 -66 -43 -115.5t-63.5 -78.5t-57.5 -42h-72l1 7q52 26 101 88t63 141q7 40 7 86l-1 58q0 33 5 59q10 56 46.5 96.5t97.5 52.5v2q-48 11 -71 42z" />
    <glyph glyph-name="asciitilde" unicode="~" horiz-adv-x="487" 
d="M217 377.5q19 -9.5 45 -27.5q21 -15 36 -22.5t33 -7.5q26 0 46 18.5t30 48.5h57q-22 -64 -61 -98t-89 -34q-25 0 -44 9t-44 27q-22 16 -36.5 23.5t-33.5 7.5q-25 0 -45.5 -18.5t-31.5 -48.5h-56q22 64 60.5 98t88.5 34q26 0 45 -9.5z" />
    <glyph glyph-name="uni00A0" unicode="&#xa0;" horiz-adv-x="260" 
 />
    <glyph glyph-name="exclamdown" unicode="&#xa1;" horiz-adv-x="284" 
d="M23.54 -160l109.154 521h59.3457l-85.8398 -521h-82.6602zM130.575 467l18.0156 90h97.4971l-16.9561 -90h-98.5566z" />
    <glyph glyph-name="cent" unicode="&#xa2;" horiz-adv-x="586" 
d="M196 409q-61 -50 -77 -143q-4 -21 -4 -46q0 -72 42.5 -109.5t109.5 -37.5q66 0 119.5 37t74.5 101h66q-27 -86 -96.5 -139t-161.5 -57l-18 -106h-38l19 107q-87 7 -136.5 57.5t-49.5 136.5q0 23 5 56q19 110 92 175.5t176 73.5l18 100h38l-18 -99q91 -4 142.5 -56.5
t46.5 -138.5h-65q0 64 -40 101t-106 37q-78 0 -139 -50z" />
    <glyph glyph-name="sterling" unicode="&#xa3;" horiz-adv-x="570" 
d="M522 676q48 -50 48 -130q0 -15 -1 -22h-66q5 63 -29 103.5t-98 40.5q-59 0 -105.5 -37t-59.5 -107q-4 -21 -4 -46q0 -34 7 -70.5t8 -43.5h186l-9 -49h-170q3 -19 3 -41t-4 -42q-9 -48 -36 -91t-75 -85h366l-11 -58h-432l-2 41q54 50 83.5 91t39.5 99q3 18 3 36
q0 16 -4 50h-118l9 49h101q-12 55 -12 104q0 35 5 62q14 88 79 142t160 54q90 0 138 -50z" />
    <glyph glyph-name="currency" unicode="&#xa4;" horiz-adv-x="527" 
d="M416 492q21 -36 21 -79q0 -17 -3 -35q-12 -67 -56 -113l48 -58l-36 -30l-48 58q-50 -33 -110 -33q-62 0 -99 34l-69 -59l-25 30l70 58q-19 33 -19 75q0 12 4 38q12 66 56 112l-51 60l36 30l50 -60q49 32 109 32q59 0 97 -32l70 60l25 -30zM379 408q0 46 -26.5 72.5
t-66.5 26.5q-49 0 -86.5 -35t-48.5 -95q-3 -16 -3 -31q0 -47 25.5 -73t67.5 -26q46 0 85.5 35t49.5 95q3 17 3 31z" />
    <glyph glyph-name="yen" unicode="&#xa5;" horiz-adv-x="605" 
d="M396 373h148l-9 -50h-174l-34 -48l-6 -35h199l-9 -51h-199l-34 -189h-70l33 189h-200l9 51h200l6 35l-17 48h-174l8 50h148l-118 332h82l118 -364l246 364h80z" />
    <glyph glyph-name="brokenbar" unicode="&#xa6;" horiz-adv-x="251" 
d="M169 791h70l-65 -370h-71zM82 -101h-70l65 372h71z" />
    <glyph glyph-name="section" unicode="&#xa7;" horiz-adv-x="573" 
d="M468 564l1 13q0 47 -33.5 79.5t-102.5 32.5q-52 0 -87 -21t-43 -63q-2 -12 -2 -18q0 -38 34 -65t111 -51q87 -26 133.5 -60.5t46.5 -95.5q0 -43 -22 -82.5t-66 -68t-106 -39.5q112 -45 112 -131q0 -72 -56.5 -117.5t-156.5 -45.5q-96 0 -148 47t-48 130h70q-3 -55 29 -90
t107 -35q59 0 95 26t36 78q0 38 -33.5 63.5t-111.5 50.5q-87 26 -133.5 60.5t-46.5 95.5q0 43 23 83.5t67.5 69.5t107.5 37q-115 47 -115 132q0 8 2 24q11 62 65.5 100t145.5 38q96 0 147.5 -47t47.5 -130h-70zM413.5 382.5q-37.5 27.5 -106.5 27.5q-56 0 -97.5 -20.5
t-64 -54t-22.5 -71.5q0 -47 37.5 -74.5t106.5 -27.5q56 0 98 20.5t64 54.5t22 71q0 47 -37.5 74.5z" />
    <glyph glyph-name="dieresis" unicode="&#xa8;" horiz-adv-x="344" 
d="M127.5 700.5q14.5 12.5 33.5 12.5t29.5 -12.5t7.5 -31.5q-4 -18 -19 -31t-33 -13q-16 0 -26.5 10t-10.5 25q0 6 1 9q3 19 17.5 31.5zM284.5 700.5q14.5 12.5 33.5 12.5q18 0 28.5 -12.5t7.5 -31.5q-4 -18 -18.5 -31t-32.5 -13q-16 0 -26.5 10t-10.5 25q0 6 1 9
q3 19 17.5 31.5z" />
    <glyph glyph-name="copyright" unicode="&#xa9;" horiz-adv-x="795" 
d="M271.5 662q-86.5 -45 -143.5 -125t-75 -183q-7 -36 -7 -75q0 -83 35.5 -146t101 -98t153.5 -35q102 0 188.5 45t143.5 125.5t75 183.5q7 46 7 74q0 83 -35 146.5t-100 98t-154 34.5q-103 0 -189.5 -45zM596.5 645.5q58.5 -31.5 89.5 -88.5t31 -132q0 -27 -7 -71
q-16 -94 -67.5 -167.5t-129.5 -115t-172 -41.5q-82 0 -141.5 31.5t-90 89t-30.5 132.5q0 35 6 71q17 93 68.5 166.5t129.5 115t173 41.5q82 0 140.5 -31.5zM566 544.5q49 -42.5 54 -118.5h-62q-7 53 -42 81.5t-85 28.5q-42 0 -81.5 -21t-68 -62t-39.5 -100q-4 -21 -4 -45
q0 -66 36.5 -101.5t92.5 -35.5q50 0 94.5 28.5t70.5 81.5h62q-32 -76 -96.5 -118.5t-137.5 -42.5q-80 0 -130.5 47.5t-50.5 132.5q0 22 5 54q13 73 51.5 126t92.5 80t115 27q74 0 123 -42.5z" />
    <glyph glyph-name="ordfeminine" unicode="&#xaa;" horiz-adv-x="440" 
d="M314 685q31 -25 39 -70l16 89h56l-62 -350h-56l15 89q-22 -45 -62 -70t-94 -25q-63 0 -99 37t-36 102q0 22 4 42q15 82 68.5 131.5t126.5 49.5q53 0 84 -25zM143.5 627q-40.5 -37 -51.5 -99q-3 -16 -3 -32q0 -47 27 -74.5t72 -27.5q56 0 97.5 36.5t52.5 98.5q3 17 3 30
q0 49 -28.5 77t-76.5 28q-52 0 -92.5 -37z" />
    <glyph glyph-name="guillemotleft" unicode="&#xab;" horiz-adv-x="435" 
d="M114 120l-69 175l131 175h70l-132 -175l70 -175h-70zM286 120l-68 175l130 175h71l-133 -175l71 -175h-71z" />
    <glyph glyph-name="logicalnot" unicode="&#xac;" horiz-adv-x="730" 
d="M697 430l-35 -200h-69l25 144h-561l10 56h630z" />
    <glyph glyph-name="uni00AD" unicode="&#xad;" horiz-adv-x="477" 
d="M458 400l-11 -59h-390l11 59h390z" />
    <glyph glyph-name="registered" unicode="&#xae;" horiz-adv-x="795" 
d="M615 673.5q65 -33.5 100 -95.5t35 -146q0 -40 -7 -78q-18 -103 -76 -183.5t-144 -126t-187 -45.5q-88 0 -153.5 35t-101 98.5t-35.5 146.5q0 39 7 75q19 105 76.5 185t143.5 124t188 44q89 0 154 -33.5zM717 429q0 116 -69 182.5t-192 66.5q-95 0 -173.5 -40
t-129.5 -113.5t-68 -170.5q-6 -37 -6 -70q0 -115 69 -181.5t194 -66.5q95 0 172.5 39.5t128.5 112t67 166.5q7 36 7 75zM560 564q33 -27 33 -73q0 -7 -2 -25q-10 -55 -49.5 -88t-103.5 -38l97 -197h-55l-94 196h-75l-34 -196h-49l78 448h153q68 0 101 -27zM542 483
q0 32 -22.5 48t-72.5 16h-100l-30 -173h100q108 0 123 87q2 16 2 22z" />
    <glyph glyph-name="macron" unicode="&#xaf;" horiz-adv-x="405" 
d="M437 700l-10 -50h-339l9 50h340z" />
    <glyph glyph-name="degree" unicode="&#xb0;" horiz-adv-x="391" 
d="M329.5 661q37.5 -36 37.5 -98q0 -21 -4 -40q-14 -80 -67.5 -128t-129.5 -48q-66 0 -103.5 37.5t-37.5 100.5q0 19 3 38q14 79 68.5 126.5t129.5 47.5q66 0 103.5 -36zM133 620q-36 -35 -47 -98q-3 -18 -3 -35q0 -46 24.5 -71.5t66.5 -25.5q49 0 85 35t47 97q3 20 3 36
q0 47 -24 72t-66 25q-50 0 -86 -35z" />
    <glyph glyph-name="plusminus" unicode="&#xb1;" horiz-adv-x="580" 
d="M561 443l-11 -64h-221l-39 -219h-68l39 219h-220l11 64h220l34 191h68l-34 -191h221zM1 156h509l-11 -64h-509z" />
    <glyph glyph-name="twosuperior" unicode="&#xb2;" horiz-adv-x="331" 
d="M263 534.5q-31 -33.5 -89 -70.5l-96 -67h193l-8 -45h-252l6 38l137 102q38 29 60.5 55t28.5 59q1 5 1 14q0 24 -14 36t-37 12q-32 0 -54 -19.5t-33 -57.5h-55q13 52 53 85.5t101 33.5q47 0 72.5 -21.5t25.5 -57.5q0 -7 -2 -21q-7 -42 -38 -75.5z" />
    <glyph glyph-name="threesuperior" unicode="&#xb3;" horiz-adv-x="327" 
d="M277.5 687.5q28.5 -22.5 28.5 -59.5q0 -11 -1 -17q-6 -31 -27.5 -52t-56.5 -29v-3q58 -16 58 -66q0 -5 -2 -19q-6 -40 -44 -67t-98 -27q-63 0 -90.5 26t-24.5 80h58q-3 -36 13.5 -50.5t47.5 -14.5q38 0 60 20t22 55q0 24 -17.5 37t-47.5 13h-54l5 27h53q33 0 56 17t29 47
q1 4 1 12q0 23 -15.5 36.5t-42.5 13.5q-62 0 -84 -58h-54q13 44 51 72.5t100 28.5q48 0 76.5 -22.5z" />
    <glyph glyph-name="acute" unicode="&#xb4;" horiz-adv-x="270" 
d="M303 711l-227 -121l10 52l228 128z" />
    <glyph glyph-name="uni00B5" unicode="&#xb5;" horiz-adv-x="640" 
d="M628 546l-96 -546h-71l23 131q-32 -69 -89.5 -105t-125.5 -36q-50 0 -88.5 22.5t-51.5 72.5l-60 -343h-70l142 804h70l-50 -282q-6 -33 -6 -61q0 -75 39 -113t107 -38q77 0 132.5 52t72.5 152v-3l52 293h70z" />
    <glyph glyph-name="paragraph" unicode="&#xb6;" horiz-adv-x="561" 
d="M418 0h-59l112 635h-96l-111 -635h-59l50 289h-8q-102 0 -153.5 43.5t-51.5 115.5q0 13 4 41q16 90 86 145.5t185 55.5h222z" />
    <glyph glyph-name="periodcentered" unicode="&#xb7;" horiz-adv-x="161" 
d="M164 390l-16 -90h-92l15 90h93z" />
    <glyph glyph-name="cedilla" unicode="&#xb8;" horiz-adv-x="273" 
d="M204 -90.5q31 -19.5 31 -59.5q0 -54 -37 -81t-97 -27h-92l8 43h83q83 0 83 59q0 20 -16 32t-49 12h-49l21 119h47l-15 -81q51 3 82 -16.5z" />
    <glyph glyph-name="onesuperior" unicode="&#xb9;" horiz-adv-x="187" 
d="M58 659l8 45h113l-62 -352h-56l54 307h-57z" />
    <glyph glyph-name="ordmasculine" unicode="&#xba;" horiz-adv-x="422" 
d="M355.5 669.5q40.5 -39.5 40.5 -104.5q0 -18 -3 -38q-14 -81 -73 -132t-138 -51q-68 0 -109 40t-41 105q0 19 3 38q14 80 73 131t138 51q69 0 109.5 -39.5zM144.5 627q-40.5 -36 -52.5 -100q-3 -18 -3 -33q0 -49 28 -76t73 -27q53 0 93.5 36t52.5 100q3 18 3 34
q0 49 -27.5 75.5t-73.5 26.5q-53 0 -93.5 -36z" />
    <glyph glyph-name="guillemotright" unicode="&#xbb;" horiz-adv-x="435" 
d="M153 295l-72 175h72l67 -175l-129 -175h-72zM325 295l-71 175h71l68 -175l-130 -175h-71z" />
    <glyph glyph-name="onequarter" unicode="&#xbc;" horiz-adv-x="624" 
d="M572 705l-482 -705h-69l482 705h69zM85 659l8 45h113l-62 -352h-56l54 307h-57zM538 72h-50l-12 -72h-56l12 72h-180l7 34l212 248h68l-44 -245h50zM474 294l-158 -184h126z" />
    <glyph glyph-name="onehalf" unicode="&#xbd;" horiz-adv-x="677" 
d="M571 706l-484 -706h-70l485 706h69zM159 659h-57l8 45h113l-62 -352h-56zM574 181.5q-31 -33.5 -89 -70.5l-96 -67h193l-8 -45h-252l6 38l137 102q38 29 60.5 55t28.5 59q1 5 1 14q0 24 -14 36t-37 12q-32 0 -54 -19.5t-33 -57.5h-55q13 52 53 85.5t101 33.5
q47 0 72.5 -21.5t25.5 -57.5q0 -7 -2 -21q-7 -42 -38 -75.5z" />
    <glyph glyph-name="threequarters" unicode="&#xbe;" horiz-adv-x="655" 
d="M299.5 687.5q28.5 -22.5 28.5 -59.5q0 -11 -1 -17q-6 -31 -27.5 -52t-56.5 -29v-3q58 -16 58 -66q0 -5 -2 -19q-6 -40 -44 -67t-98 -27q-63 0 -90.5 26t-24.5 80h58q-3 -36 13.5 -50.5t47.5 -14.5q38 0 60 20t22 55q0 24 -17.5 37t-47.5 13h-54l5 27h53q33 0 56 17t29 47
q1 4 1 12q0 23 -15.5 36.5t-42.5 13.5q-62 0 -84 -58h-54q13 44 51 72.5t100 28.5q48 0 76.5 -22.5zM630 706l-478 -706h-69l478 706h69zM586 72h-50l-12 -72h-56l12 72h-180l6 34l207 248h73l-43 -245h50zM523 299l-159 -190h126z" />
    <glyph glyph-name="questiondown" unicode="&#xbf;" horiz-adv-x="481" 
d="M45.5 -136.5q-49.5 44.5 -49.5 123.5q0 24 4 45q18 104 95 152t192 50l23 126h67l-31 -175h-33q-94 0 -161 -32t-82 -120q-4 -26 -4 -37q0 -56 34 -87t94 -31q69 0 112 37t60 102h68q-21 -92 -86.5 -145t-166.5 -53q-86 0 -135.5 44.5zM313 456l16 90h92l-16 -90h-92z
" />
    <glyph glyph-name="Agrave" unicode="&#xc0;" horiz-adv-x="644" 
d="M452 172h-320l-94 -172h-76l382 689h79l138 -689h-76zM442 228l-72 380l-208 -380h280zM432 801l-10 -52l-183 121l11 59z" />
    <glyph glyph-name="Aacute" unicode="&#xc1;" horiz-adv-x="644" 
d="M452 172h-320l-94 -172h-76l382 689h79l138 -689h-76zM442 228l-72 380l-208 -380h280zM586 870l-227 -121l10 52l228 128z" />
    <glyph glyph-name="Acircumflex" unicode="&#xc2;" horiz-adv-x="644" 
d="M455 172h-320l-94 -172h-76l382 689h79l138 -689h-76zM445 228l-72 380l-208 -380h280zM416 855l-149 -83l9 51l149 82l119 -82l-9 -51z" />
    <glyph glyph-name="Atilde" unicode="&#xc3;" horiz-adv-x="644" 
d="M459 172h-320l-94 -172h-76l382 689h79l138 -689h-76zM449 228l-72 380l-208 -380h280zM398.5 852.5q12.5 -6.5 27.5 -19.5q14 -12 24 -17.5t25 -5.5q17 0 31.5 12t20.5 35h41q-13 -44 -40.5 -68.5t-62.5 -24.5q-20 0 -33.5 7t-29.5 20q-13 11 -22.5 16.5t-22.5 5.5
q-36 0 -52 -48h-40q15 46 41 70t61 24q19 0 31.5 -6.5z" />
    <glyph glyph-name="Adieresis" unicode="&#xc4;" horiz-adv-x="644" 
d="M457 172h-320l-94 -172h-76l382 689h79l138 -689h-76zM447 228l-72 380l-208 -380h280zM311.5 859.5q14.5 12.5 33.5 12.5t29.5 -12.5t7.5 -31.5q-4 -18 -19 -31t-33 -13q-16 0 -26.5 10t-10.5 25q0 6 1 9q3 19 17.5 31.5zM468.5 859.5q14.5 12.5 33.5 12.5
q18 0 28.5 -12.5t7.5 -31.5q-4 -18 -18.5 -31t-32.5 -13q-16 0 -26.5 10t-10.5 25q0 6 1 9q3 19 17.5 31.5z" />
    <glyph glyph-name="Aring" unicode="&#xc5;" horiz-adv-x="644" 
d="M449 172h-320l-94 -172h-76l382 689h79l138 -689h-76zM439 228l-72 380l-208 -380h280zM486.5 948.5q23.5 -21.5 23.5 -58.5q0 -36 -17 -63.5t-45 -42.5t-59 -15q-37 0 -60.5 21.5t-23.5 57.5t17 64t44.5 43t58.5 15q38 0 61.5 -21.5zM364.5 913q-22.5 -22 -22.5 -58
q0 -24 14.5 -38t38.5 -14q32 0 54.5 22t22.5 58q0 24 -14.5 38t-38.5 14q-32 0 -54.5 -22z" />
    <glyph glyph-name="AE" unicode="&#xc6;" horiz-adv-x="874" 
d="M577 648l-46 -265h273l-10 -56h-273l-48 -269h303l-10 -58h-373l30 170h-271l-129 -170h-78l534 705h411l-10 -57h-303zM505 635l-311 -410h239z" />
    <glyph glyph-name="Ccedilla" unicode="&#xc7;" horiz-adv-x="765" 
d="M658 650.5q72 -61.5 87 -169.5h-74q-14 76 -71 121t-153 45q-73 0 -139 -36t-111.5 -103t-61.5 -156q-6 -36 -6 -68q0 -105 58.5 -165.5t155.5 -60.5q96 0 169 45.5t114 120.5h74q-53 -108 -146.5 -169.5t-220.5 -61.5q-85 0 -147.5 35t-96 98.5t-33.5 147.5q0 40 7 78
q18 105 74.5 187t140.5 127.5t181 45.5q127 0 199 -61.5zM448 -90.5q31 -19.5 31 -59.5q0 -54 -37 -81t-97 -27h-92l8 43h83q83 0 83 59q0 20 -16 32t-49 12h-49l21 119h47l-15 -81q51 3 82 -16.5z" />
    <glyph glyph-name="Egrave" unicode="&#xc8;" horiz-adv-x="498" 
d="M197 648l-47 -266h276l-11 -55h-275l-47 -269h305l-10 -58h-376l124 705h376l-10 -57h-305zM372 801l-10 -52l-183 121l11 59z" />
    <glyph glyph-name="Eacute" unicode="&#xc9;" horiz-adv-x="498" 
d="M197 648l-47 -266h276l-11 -55h-275l-47 -269h305l-10 -58h-376l124 705h376l-10 -57h-305zM526 870l-227 -121l10 52l228 128z" />
    <glyph glyph-name="Ecircumflex" unicode="&#xca;" horiz-adv-x="498" 
d="M199 648l-47 -266h276l-11 -55h-275l-47 -269h305l-10 -58h-376l124 705h376l-10 -57h-305zM356 855l-149 -83l9 51l149 82l119 -82l-9 -51z" />
    <glyph glyph-name="Edieresis" unicode="&#xcb;" horiz-adv-x="498" 
d="M202 648l-47 -266h276l-11 -55h-275l-47 -269h305l-10 -58h-376l124 705h376l-10 -57h-305zM251.5 859.5q14.5 12.5 33.5 12.5t29.5 -12.5t7.5 -31.5q-4 -18 -19 -31t-33 -13q-16 0 -26.5 10t-10.5 25q0 6 1 9q3 19 17.5 31.5zM408.5 859.5q14.5 12.5 33.5 12.5
q18 0 28.5 -12.5t7.5 -31.5q-4 -18 -18.5 -31t-32.5 -13q-16 0 -26.5 10t-10.5 25q0 6 1 9q3 19 17.5 31.5z" />
    <glyph glyph-name="Igrave" unicode="&#xcc;" horiz-adv-x="223" 
d="M209 705l-124 -705h-71l124 705h71zM221 801l-10 -52l-183 121l11 59z" />
    <glyph glyph-name="Iacute" unicode="&#xcd;" horiz-adv-x="223" 
d="M209 705l-124 -705h-71l124 705h71zM376 870l-227 -121l10 52l228 128z" />
    <glyph glyph-name="Icircumflex" unicode="&#xce;" horiz-adv-x="223" 
d="M212 705l-124 -705h-71l124 705h71zM206 855l-149 -83l9 51l149 82l119 -82l-9 -51z" />
    <glyph glyph-name="Idieresis" unicode="&#xcf;" horiz-adv-x="223" 
d="M214 705l-124 -705h-71l124 705h71zM101.5 859.5q14.5 12.5 33.5 12.5t29.5 -12.5t7.5 -31.5q-4 -18 -19 -31t-33 -13q-16 0 -26.5 10t-10.5 25q0 6 1 9q3 19 17.5 31.5zM258.5 859.5q14.5 12.5 33.5 12.5q18 0 28.5 -12.5t7.5 -31.5q-4 -18 -18.5 -31t-32.5 -13
q-16 0 -26.5 10t-10.5 25q0 6 1 9q3 19 17.5 31.5z" />
    <glyph glyph-name="Eth" unicode="&#xd0;" horiz-adv-x="742" 
d="M616 634q81 -71 81 -199q0 -41 -7 -82q-19 -109 -76 -188.5t-148 -122t-209 -42.5h-213l57 324h-99l11 58h98l57 323h213q154 0 235 -71zM625 422q0 106 -65.5 163.5t-194.5 57.5h-137l-46 -261h208l-11 -58h-207l-46 -261h137q149 0 240.5 76.5t115.5 213.5q6 36 6 69z
" />
    <glyph glyph-name="Ntilde" unicode="&#xd1;" horiz-adv-x="680" 
d="M546 0h-71l-282 589l-104 -589h-71l124 704h71l283 -590l103 590h71zM413.5 852.5q12.5 -6.5 27.5 -19.5q14 -12 24 -17.5t25 -5.5q17 0 31.5 12t20.5 35h41q-13 -44 -40.5 -68.5t-62.5 -24.5q-20 0 -33.5 7t-29.5 20q-13 11 -22.5 16.5t-22.5 5.5q-36 0 -52 -48h-40
q15 46 41 70t61 24q19 0 31.5 -6.5z" />
    <glyph glyph-name="Ograve" unicode="&#xd2;" horiz-adv-x="787" 
d="M603.5 676.5q65.5 -36.5 101 -102t35.5 -152.5q0 -41 -7 -79q-18 -102 -74 -182t-140 -124.5t-182 -44.5q-90 0 -156 36.5t-101 102t-35 152.5q0 41 7 80q18 102 74 181.5t140 124t183 44.5q89 0 154.5 -36.5zM298.5 612.5q-67.5 -35.5 -114 -102t-62.5 -155.5
q-6 -36 -6 -67q0 -107 62 -168.5t165 -61.5q77 0 144.5 35.5t114 102t62.5 154.5q6 36 6 67q0 107 -62.5 169t-165.5 62q-76 0 -143.5 -35.5zM504 801l-10 -52l-183 121l11 59z" />
    <glyph glyph-name="Oacute" unicode="&#xd3;" horiz-adv-x="787" 
d="M601.5 676.5q65.5 -36.5 101 -102t35.5 -152.5q0 -41 -7 -79q-18 -102 -74 -182t-140 -124.5t-182 -44.5q-90 0 -156 36.5t-101 102t-35 152.5q0 41 7 80q18 102 74 181.5t140 124t183 44.5q89 0 154.5 -36.5zM296.5 612.5q-67.5 -35.5 -114 -102t-62.5 -155.5
q-6 -36 -6 -67q0 -107 62 -168.5t165 -61.5q77 0 144.5 35.5t114 102t62.5 154.5q6 36 6 67q0 107 -62.5 169t-165.5 62q-76 0 -143.5 -35.5zM656 870l-227 -121l10 52l228 128z" />
    <glyph glyph-name="Ocircumflex" unicode="&#xd4;" horiz-adv-x="787" 
d="M603.5 676.5q65.5 -36.5 101 -102t35.5 -152.5q0 -41 -7 -79q-18 -102 -74 -182t-140 -124.5t-182 -44.5q-90 0 -156 36.5t-101 102t-35 152.5q0 41 7 80q18 102 74 181.5t140 124t183 44.5q89 0 154.5 -36.5zM298.5 612.5q-67.5 -35.5 -114 -102t-62.5 -155.5
q-6 -36 -6 -67q0 -107 62 -168.5t165 -61.5q77 0 144.5 35.5t114 102t62.5 154.5q6 36 6 67q0 107 -62.5 169t-165.5 62q-76 0 -143.5 -35.5zM486 855l-149 -83l9 51l149 82l119 -82l-9 -51z" />
    <glyph glyph-name="Otilde" unicode="&#xd5;" horiz-adv-x="787" 
d="M607.5 676.5q65.5 -36.5 101 -102t35.5 -152.5q0 -41 -7 -79q-18 -102 -74 -182t-140 -124.5t-182 -44.5q-90 0 -156 36.5t-101 102t-35 152.5q0 41 7 80q18 102 74 181.5t140 124t183 44.5q89 0 154.5 -36.5zM302.5 612.5q-67.5 -35.5 -114 -102t-62.5 -155.5
q-6 -36 -6 -67q0 -107 62 -168.5t165 -61.5q77 0 144.5 35.5t114 102t62.5 154.5q6 36 6 67q0 107 -62.5 169t-165.5 62q-76 0 -143.5 -35.5zM468.5 852.5q12.5 -6.5 27.5 -19.5q14 -12 24 -17.5t25 -5.5q17 0 31.5 12t20.5 35h41q-13 -44 -40.5 -68.5t-62.5 -24.5
q-20 0 -33.5 7t-29.5 20q-13 11 -22.5 16.5t-22.5 5.5q-36 0 -52 -48h-40q15 46 41 70t61 24q19 0 31.5 -6.5z" />
    <glyph glyph-name="Odieresis" unicode="&#xd6;" horiz-adv-x="787" 
d="M606.5 676.5q65.5 -36.5 101 -102t35.5 -152.5q0 -41 -7 -79q-18 -102 -74 -182t-140 -124.5t-182 -44.5q-90 0 -156 36.5t-101 102t-35 152.5q0 41 7 80q18 102 74 181.5t140 124t183 44.5q89 0 154.5 -36.5zM301.5 612.5q-67.5 -35.5 -114 -102t-62.5 -155.5
q-6 -36 -6 -67q0 -107 62 -168.5t165 -61.5q77 0 144.5 35.5t114 102t62.5 154.5q6 36 6 67q0 107 -62.5 169t-165.5 62q-76 0 -143.5 -35.5zM381.5 859.5q14.5 12.5 33.5 12.5t29.5 -12.5t7.5 -31.5q-4 -18 -19 -31t-33 -13q-16 0 -26.5 10t-10.5 25q0 6 1 9
q3 19 17.5 31.5zM538.5 859.5q14.5 12.5 33.5 12.5q18 0 28.5 -12.5t7.5 -31.5q-4 -18 -18.5 -31t-32.5 -13q-16 0 -26.5 10t-10.5 25q0 6 1 9q3 19 17.5 31.5z" />
    <glyph glyph-name="multiply" unicode="&#xd7;" horiz-adv-x="497" 
d="M297 372l138 -167l-55 -47l-138 168l-195 -167l-38 46l195 166l-136 166l55 47l136 -166l194 165l38 -45z" />
    <glyph glyph-name="Oslash" unicode="&#xd8;" horiz-adv-x="791" 
d="M689 601q52 -72 52 -179q0 -41 -7 -79q-18 -102 -74 -182t-140 -124.5t-182 -44.5q-69 0 -124.5 22t-94.5 63l-83 -77h-48l111 102q-53 73 -53 181q0 41 7 80q18 102 74 181.5t140 124t183 44.5q69 0 125 -22.5t94 -64.5l87 80h47zM117 288q0 -80 36 -136l464 426
q-31 34 -75.5 52t-98.5 18q-76 0 -143.5 -35.5t-114 -102t-62.5 -155.5q-6 -36 -6 -67zM671 416q0 79 -35 136l-463 -426q30 -33 73.5 -50.5t97.5 -17.5q77 0 144.5 35.5t114 102t62.5 154.5q6 35 6 66z" />
    <glyph glyph-name="Ugrave" unicode="&#xd9;" horiz-adv-x="652" 
d="M204 705l-75 -427q-7 -35 -7 -69q0 -77 40.5 -113.5t112.5 -36.5q85 0 143 53t79 166l75 427h70l-75 -427q-26 -143 -107.5 -214t-197.5 -71q-99 0 -155 51.5t-56 154.5q0 38 7 79l76 427h70zM433 801l-10 -52l-183 121l11 59z" />
    <glyph glyph-name="Uacute" unicode="&#xda;" horiz-adv-x="652" 
d="M204 705l-75 -427q-7 -35 -7 -69q0 -77 40.5 -113.5t112.5 -36.5q85 0 143 53t79 166l75 427h70l-75 -427q-26 -143 -107.5 -214t-197.5 -71q-99 0 -155 51.5t-56 154.5q0 38 7 79l76 427h70zM588 870l-227 -121l10 52l228 128z" />
    <glyph glyph-name="Ucircumflex" unicode="&#xdb;" horiz-adv-x="652" 
d="M206 705l-75 -427q-7 -35 -7 -69q0 -77 40.5 -113.5t112.5 -36.5q85 0 143 53t79 166l75 427h70l-75 -427q-26 -143 -107.5 -214t-197.5 -71q-99 0 -155 51.5t-56 154.5q0 38 7 79l76 427h70zM418 855l-149 -83l9 51l149 82l119 -82l-9 -51z" />
    <glyph glyph-name="Udieresis" unicode="&#xdc;" horiz-adv-x="652" 
d="M209 705l-75 -427q-7 -35 -7 -69q0 -77 40.5 -113.5t112.5 -36.5q85 0 143 53t79 166l75 427h70l-75 -427q-26 -143 -107.5 -214t-197.5 -71q-99 0 -155 51.5t-56 154.5q0 38 7 79l76 427h70zM313.5 859.5q14.5 12.5 33.5 12.5t29.5 -12.5t7.5 -31.5q-4 -18 -19 -31
t-33 -13q-16 0 -26.5 10t-10.5 25q0 6 1 9q3 19 17.5 31.5zM470.5 859.5q14.5 12.5 33.5 12.5q18 0 28.5 -12.5t7.5 -31.5q-4 -18 -18.5 -31t-32.5 -13q-16 0 -26.5 10t-10.5 25q0 6 1 9q3 19 17.5 31.5z" />
    <glyph glyph-name="Yacute" unicode="&#xdd;" horiz-adv-x="571" 
d="M609 705l-303 -430l-48 -275h-71l48 275l-152 430h81l119 -356l245 356h81zM548 870l-227 -121l10 52l228 128z" />
    <glyph glyph-name="Thorn" unicode="&#xde;" horiz-adv-x="558" 
d="M111 151l-26 -151h-71l124 705h70l-26 -148h141q104 0 154.5 -41t50.5 -116q0 -19 -5 -47q-17 -97 -86.5 -149.5t-184.5 -52.5h-141zM393.5 245.5q46.5 37.5 58.5 107.5q4 26 4 38q0 109 -149 109h-134l-51 -292h134q91 0 137.5 37.5z" />
    <glyph glyph-name="germandbls" unicode="&#xdf;" horiz-adv-x="632" 
d="M544 284.5q25 -40.5 25 -90.5q0 -24 -4 -44q-13 -71 -69 -116t-139 -45q-77 0 -121.5 40t-44.5 112q0 17 3 35h60q-2 -20 -2 -28q0 -44 26 -70.5t79 -26.5q59 0 95.5 33t44.5 78q2 10 2 28q0 32 -17 60.5t-56 58.5l-141 105l6 31l40 19q38 17 59 42.5t28 62.5q2 16 2 24
q0 42 -26 67t-73 25q-56 0 -93.5 -33t-47.5 -92l-98 -560h-71l100 562q16 90 74.5 139t151.5 49q73 0 116.5 -36t43.5 -97q0 -15 -3 -30q-17 -91 -127 -138l-14 -6l113 -81q53 -37 78 -77.5z" />
    <glyph glyph-name="agrave" unicode="&#xe0;" horiz-adv-x="674" 
d="M490.5 510q51.5 -43 60.5 -114l27 150h69l-97 -546h-69l27 150q-34 -71 -100 -114t-150 -43q-98 0 -155 57.5t-57 158.5q0 33 6 69q15 84 58 146.5t106.5 95.5t137.5 33q85 0 136.5 -43zM206.5 432.5q-65.5 -58.5 -83.5 -159.5q-5 -32 -5 -53q0 -78 45 -121.5t124 -43.5
q58 0 109.5 27t86.5 76.5t46 114.5q5 28 5 50q0 78 -46 123t-123 45q-93 0 -158.5 -58.5zM406 642l-10 -52l-183 121l11 59z" />
    <glyph glyph-name="aacute" unicode="&#xe1;" horiz-adv-x="674" 
d="M490.5 510q51.5 -43 60.5 -114l27 150h69l-97 -546h-69l27 150q-34 -71 -100 -114t-150 -43q-98 0 -155 57.5t-57 158.5q0 33 6 69q15 84 58 146.5t106.5 95.5t137.5 33q85 0 136.5 -43zM206.5 432.5q-65.5 -58.5 -83.5 -159.5q-5 -32 -5 -53q0 -78 45 -121.5t124 -43.5
q58 0 109.5 27t86.5 76.5t46 114.5q5 28 5 50q0 78 -46 123t-123 45q-93 0 -158.5 -58.5zM560 711l-227 -121l10 52l228 128z" />
    <glyph glyph-name="acircumflex" unicode="&#xe2;" horiz-adv-x="674" 
d="M487.5 510q51.5 -43 60.5 -114l27 150h69l-97 -546h-69l27 150q-34 -71 -100 -114t-150 -43q-98 0 -155 57.5t-57 158.5q0 33 6 69q15 84 58 146.5t106.5 95.5t137.5 33q85 0 136.5 -43zM203.5 432.5q-65.5 -58.5 -83.5 -159.5q-5 -32 -5 -53q0 -78 45 -121.5t124 -43.5
q58 0 109.5 27t86.5 76.5t46 114.5q5 28 5 50q0 78 -46 123t-123 45q-93 0 -158.5 -58.5zM386 696l-149 -83l9 51l149 82l119 -82l-9 -51z" />
    <glyph glyph-name="atilde" unicode="&#xe3;" horiz-adv-x="674" 
d="M496.5 510q51.5 -43 60.5 -114l27 150h69l-97 -546h-69l27 150q-34 -71 -100 -114t-150 -43q-98 0 -155 57.5t-57 158.5q0 33 6 69q15 84 58 146.5t106.5 95.5t137.5 33q85 0 136.5 -43zM212.5 432.5q-65.5 -58.5 -83.5 -159.5q-5 -32 -5 -53q0 -78 45 -121.5t124 -43.5
q58 0 109.5 27t86.5 76.5t46 114.5q5 28 5 50q0 78 -46 123t-123 45q-93 0 -158.5 -58.5zM372.5 693.5q12.5 -6.5 27.5 -19.5q14 -12 24 -17.5t25 -5.5q17 0 31.5 12t20.5 35h41q-13 -44 -40.5 -68.5t-62.5 -24.5q-20 0 -33.5 7t-29.5 20q-13 11 -22.5 16.5t-22.5 5.5
q-36 0 -52 -48h-40q15 46 41 70t61 24q19 0 31.5 -6.5z" />
    <glyph glyph-name="adieresis" unicode="&#xe4;" horiz-adv-x="674" 
d="M495.5 510q51.5 -43 60.5 -114l27 150h69l-97 -546h-69l27 150q-34 -71 -100 -114t-150 -43q-98 0 -155 57.5t-57 158.5q0 33 6 69q15 84 58 146.5t106.5 95.5t137.5 33q85 0 136.5 -43zM211.5 432.5q-65.5 -58.5 -83.5 -159.5q-5 -32 -5 -53q0 -78 45 -121.5t124 -43.5
q58 0 109.5 27t86.5 76.5t46 114.5q5 28 5 50q0 78 -46 123t-123 45q-93 0 -158.5 -58.5zM285.5 700.5q14.5 12.5 33.5 12.5t29.5 -12.5t7.5 -31.5q-4 -18 -19 -31t-33 -13q-16 0 -26.5 10t-10.5 25q0 6 1 9q3 19 17.5 31.5zM442.5 700.5q14.5 12.5 33.5 12.5
q18 0 28.5 -12.5t7.5 -31.5q-4 -18 -18.5 -31t-32.5 -13q-16 0 -26.5 10t-10.5 25q0 6 1 9q3 19 17.5 31.5z" />
    <glyph glyph-name="aring" unicode="&#xe5;" horiz-adv-x="674" 
d="M481.5 510q51.5 -43 60.5 -114l27 150h69l-97 -546h-69l27 150q-34 -71 -100 -114t-150 -43q-98 0 -155 57.5t-57 158.5q0 33 6 69q15 84 58 146.5t106.5 95.5t137.5 33q85 0 136.5 -43zM197.5 432.5q-65.5 -58.5 -83.5 -159.5q-5 -32 -5 -53q0 -78 45 -121.5t124 -43.5
q58 0 109.5 27t86.5 76.5t46 114.5q5 28 5 50q0 78 -46 123t-123 45q-93 0 -158.5 -58.5zM455.5 789.5q23.5 -21.5 23.5 -58.5q0 -36 -17 -63.5t-45 -42.5t-59 -15q-37 0 -60.5 21.5t-23.5 57.5t17 64t44.5 43t58.5 15q38 0 61.5 -21.5zM333.5 754q-22.5 -22 -22.5 -58
q0 -24 14.5 -38t38.5 -14q32 0 54.5 22t22.5 58q0 24 -14.5 38t-38.5 14q-32 0 -54.5 -22z" />
    <glyph glyph-name="ae" unicode="&#xe6;" horiz-adv-x="1116" 
d="M1021.5 497.5q53.5 -55.5 53.5 -140.5q0 -28 -4 -49q-5 -29 -14 -51h-461q-3 -22 -3 -43q0 -81 47.5 -122.5t119.5 -41.5q75 0 133 37t80 101h74q-31 -87 -105 -141t-172 -54q-81 0 -134.5 41t-60.5 117l-26 -151h-70l27 150q-34 -71 -100 -114t-150 -43
q-97 0 -154.5 57.5t-57.5 157.5q0 31 6 65q15 86 59 149.5t107.5 97t138.5 33.5q84 0 134.5 -43t59.5 -114l27 150h70l-27 -150q34 76 99 116.5t151 40.5q99 0 152.5 -55.5zM1006 348q0 72 -47.5 110t-117.5 38q-87 0 -152 -50.5t-86 -152.5h396q7 28 7 55zM532 321
q0 78 -46 124t-123 46q-93 0 -158.5 -58.5t-83.5 -159.5q-5 -30 -5 -52q0 -78 45 -122t124 -44q59 0 110 27t86 76.5t47 114.5q4 23 4 48z" />
    <glyph glyph-name="ccedilla" unicode="&#xe7;" horiz-adv-x="624" 
d="M533.5 498q59.5 -55 58.5 -146h-74q0 65 -43 102.5t-116 37.5q-53 0 -101 -24t-83.5 -73.5t-48.5 -121.5q-5 -25 -5 -55q0 -81 45 -122.5t116 -41.5q73 0 129.5 37.5t78.5 102.5h74q-32 -91 -110 -146t-182 -55q-102 0 -162.5 58t-60.5 161q0 32 6 66q15 85 59.5 147
t111 95t143.5 33q105 0 164.5 -55zM366 -90.5q31 -19.5 31 -59.5q0 -54 -37 -81t-97 -27h-92l8 43h83q83 0 83 59q0 20 -16 32t-49 12h-49l21 119h47l-15 -81q51 3 82 -16.5z" />
    <glyph glyph-name="egrave" unicode="&#xe8;" horiz-adv-x="625" 
d="M484 526.5q49 -26.5 74 -71.5t25 -101q0 -25 -4 -46q-5 -29 -14 -51h-451q-4 -32 -4 -45q0 -80 46 -120.5t117 -40.5q73 0 129.5 37t78.5 100h74q-31 -87 -108 -141t-182 -54q-102 0 -162.5 58t-60.5 160q0 31 6 65q15 85 60.5 148t112 96t143.5 33q71 0 120 -26.5z
M514 350q0 72 -45.5 109t-114.5 37q-82 0 -147.5 -51.5t-85.5 -151.5h386q7 29 7 57zM392 642l-10 -52l-183 121l11 59z" />
    <glyph glyph-name="eacute" unicode="&#xe9;" horiz-adv-x="625" 
d="M484 526.5q49 -26.5 74 -71.5t25 -101q0 -25 -4 -46q-5 -29 -14 -51h-451q-4 -32 -4 -45q0 -80 46 -120.5t117 -40.5q73 0 129.5 37t78.5 100h74q-31 -87 -108 -141t-182 -54q-102 0 -162.5 58t-60.5 160q0 31 6 65q15 85 60.5 148t112 96t143.5 33q71 0 120 -26.5z
M514 350q0 72 -45.5 109t-114.5 37q-82 0 -147.5 -51.5t-85.5 -151.5h386q7 29 7 57zM547 711l-227 -121l10 52l228 128z" />
    <glyph glyph-name="ecircumflex" unicode="&#xea;" horiz-adv-x="625" 
d="M487 526.5q49 -26.5 74 -71.5t25 -101q0 -25 -4 -46q-5 -29 -14 -51h-451q-4 -32 -4 -45q0 -80 46 -120.5t117 -40.5q73 0 129.5 37t78.5 100h74q-31 -87 -108 -141t-182 -54q-102 0 -162.5 58t-60.5 160q0 31 6 65q15 85 60.5 148t112 96t143.5 33q71 0 120 -26.5z
M517 350q0 72 -45.5 109t-114.5 37q-82 0 -147.5 -51.5t-85.5 -151.5h386q7 29 7 57zM377 696l-149 -83l9 51l149 82l119 -82l-9 -51z" />
    <glyph glyph-name="edieresis" unicode="&#xeb;" horiz-adv-x="625" 
d="M489 526.5q49 -26.5 74 -71.5t25 -101q0 -25 -4 -46q-5 -29 -14 -51h-451q-4 -32 -4 -45q0 -80 46 -120.5t117 -40.5q73 0 129.5 37t78.5 100h74q-31 -87 -108 -141t-182 -54q-102 0 -162.5 58t-60.5 160q0 31 6 65q15 85 60.5 148t112 96t143.5 33q71 0 120 -26.5z
M519 350q0 72 -45.5 109t-114.5 37q-82 0 -147.5 -51.5t-85.5 -151.5h386q7 29 7 57zM272.5 700.5q14.5 12.5 33.5 12.5t29.5 -12.5t7.5 -31.5q-4 -18 -19 -31t-33 -13q-16 0 -26.5 10t-10.5 25q0 6 1 9q3 19 17.5 31.5zM429.5 700.5q14.5 12.5 33.5 12.5q18 0 28.5 -12.5
t7.5 -31.5q-4 -18 -18.5 -31t-32.5 -13q-16 0 -26.5 10t-10.5 25q0 6 1 9q3 19 17.5 31.5z" />
    <glyph glyph-name="igrave" unicode="&#xec;" horiz-adv-x="223" 
d="M194 546l-97 -546h-70l97 546h70zM199 642l-10 -52l-183 121l11 59z" />
    <glyph glyph-name="iacute" unicode="&#xed;" horiz-adv-x="223" 
d="M194 546l-97 -546h-70l97 546h70zM354 711l-227 -121l10 52l228 128z" />
    <glyph glyph-name="icircumflex" unicode="&#xee;" horiz-adv-x="223" 
d="M196 546l-97 -546h-70l97 546h70zM179 696l-149 -83l9 51l149 82l119 -82l-9 -51z" />
    <glyph glyph-name="idieresis" unicode="&#xef;" horiz-adv-x="223" 
d="M199 546l-97 -546h-70l97 546h70zM79.5 700.5q14.5 12.5 33.5 12.5t29.5 -12.5t7.5 -31.5q-4 -18 -19 -31t-33 -13q-16 0 -26.5 10t-10.5 25q0 6 1 9q3 19 17.5 31.5zM236.5 700.5q14.5 12.5 33.5 12.5q18 0 28.5 -12.5t7.5 -31.5q-4 -18 -18.5 -31t-32.5 -13
q-16 0 -26.5 10t-10.5 25q0 6 1 9q3 19 17.5 31.5z" />
    <glyph glyph-name="eth" unicode="&#xf0;" horiz-adv-x="642" 
d="M613 708l-113 -37q96 -121 96 -268q0 -45 -9 -93q-18 -103 -65 -174.5t-114.5 -107t-146.5 -35.5q-107 0 -168 61.5t-61 165.5q0 32 6 66q14 81 58.5 142t111.5 94.5t146 33.5q71 0 119.5 -38t58.5 -115q-1 74 -20 134.5t-62 117.5l-150 -49l5 32l126 41q-21 25 -59 61
h65q21 -20 43 -45l138 45zM514 326q0 80 -46.5 124.5t-119.5 44.5q-88 0 -154.5 -55.5t-83.5 -154.5q-6 -31 -6 -58q0 -82 46 -127t122 -45q56 0 105.5 25.5t84.5 75t47 117.5q5 32 5 53z" />
    <glyph glyph-name="ntilde" unicode="&#xf1;" horiz-adv-x="635" 
d="M532.5 511q48.5 -45 48.5 -132q0 -28 -6 -61l-57 -318h-69l55 313q5 28 5 49q0 66 -37.5 100.5t-103.5 34.5q-82 0 -139.5 -52.5t-75.5 -154.5l-51 -290h-71l97 546h70l-24 -134q33 70 95 107t133 37q82 0 130.5 -45zM364.5 693.5q12.5 -6.5 27.5 -19.5q14 -12 24 -17.5
t25 -5.5q17 0 31.5 12t20.5 35h41q-13 -44 -40.5 -68.5t-62.5 -24.5q-20 0 -33.5 7t-29.5 20q-13 11 -22.5 16.5t-22.5 5.5q-36 0 -52 -48h-40q15 46 41 70t61 24q19 0 31.5 -6.5z" />
    <glyph glyph-name="ograve" unicode="&#xf2;" horiz-adv-x="645" 
d="M539 494q63 -59 63 -163q0 -30 -6 -63q-15 -84 -61 -146.5t-113.5 -95.5t-144.5 -33q-105 0 -168.5 59.5t-63.5 163.5q0 29 6 62q15 84 61.5 146.5t114.5 95.5t145 33q104 0 167 -59zM259 468q-50 -24 -86.5 -73.5t-49.5 -121.5q-5 -32 -5 -53q0 -81 47.5 -123t119.5 -42
q54 0 103.5 24t86 73t49.5 121q5 32 5 53q0 81 -47 123.5t-119 42.5q-54 0 -104 -24zM404 642l-10 -52l-183 121l11 59z" />
    <glyph glyph-name="oacute" unicode="&#xf3;" horiz-adv-x="645" 
d="M539 494q63 -59 63 -163q0 -30 -6 -63q-15 -84 -61 -146.5t-113.5 -95.5t-144.5 -33q-105 0 -168.5 59.5t-63.5 163.5q0 29 6 62q15 84 61.5 146.5t114.5 95.5t145 33q104 0 167 -59zM259 468q-50 -24 -86.5 -73.5t-49.5 -121.5q-5 -32 -5 -53q0 -81 47.5 -123t119.5 -42
q54 0 103.5 24t86 73t49.5 121q5 32 5 53q0 81 -47 123.5t-119 42.5q-54 0 -104 -24zM559 711l-227 -121l10 52l228 128z" />
    <glyph glyph-name="ocircumflex" unicode="&#xf4;" horiz-adv-x="645" 
d="M539 494q63 -59 63 -163q0 -30 -6 -63q-15 -84 -61 -146.5t-113.5 -95.5t-144.5 -33q-105 0 -168.5 59.5t-63.5 163.5q0 29 6 62q15 84 61.5 146.5t114.5 95.5t145 33q104 0 167 -59zM259 468q-50 -24 -86.5 -73.5t-49.5 -121.5q-5 -32 -5 -53q0 -81 47.5 -123t119.5 -42
q54 0 103.5 24t86 73t49.5 121q5 32 5 53q0 81 -47 123.5t-119 42.5q-54 0 -104 -24zM386 696l-149 -83l9 51l149 82l119 -82l-9 -51z" />
    <glyph glyph-name="otilde" unicode="&#xf5;" horiz-adv-x="645" 
d="M545 494q63 -59 63 -163q0 -30 -6 -63q-15 -84 -61 -146.5t-113.5 -95.5t-144.5 -33q-105 0 -168.5 59.5t-63.5 163.5q0 29 6 62q15 84 61.5 146.5t114.5 95.5t145 33q104 0 167 -59zM265 468q-50 -24 -86.5 -73.5t-49.5 -121.5q-5 -32 -5 -53q0 -81 47.5 -123t119.5 -42
q54 0 103.5 24t86 73t49.5 121q5 32 5 53q0 81 -47 123.5t-119 42.5q-54 0 -104 -24zM370.5 693.5q12.5 -6.5 27.5 -19.5q14 -12 24 -17.5t25 -5.5q17 0 31.5 12t20.5 35h41q-13 -44 -40.5 -68.5t-62.5 -24.5q-20 0 -33.5 7t-29.5 20q-13 11 -22.5 16.5t-22.5 5.5
q-36 0 -52 -48h-40q15 46 41 70t61 24q19 0 31.5 -6.5z" />
    <glyph glyph-name="odieresis" unicode="&#xf6;" horiz-adv-x="645" 
d="M544 494q63 -59 63 -163q0 -30 -6 -63q-15 -84 -61 -146.5t-113.5 -95.5t-144.5 -33q-105 0 -168.5 59.5t-63.5 163.5q0 29 6 62q15 84 61.5 146.5t114.5 95.5t145 33q104 0 167 -59zM264 468q-50 -24 -86.5 -73.5t-49.5 -121.5q-5 -32 -5 -53q0 -81 47.5 -123t119.5 -42
q54 0 103.5 24t86 73t49.5 121q5 32 5 53q0 81 -47 123.5t-119 42.5q-54 0 -104 -24zM283.5 700.5q14.5 12.5 33.5 12.5t29.5 -12.5t7.5 -31.5q-4 -18 -19 -31t-33 -13q-16 0 -26.5 10t-10.5 25q0 6 1 9q3 19 17.5 31.5zM440.5 700.5q14.5 12.5 33.5 12.5q18 0 28.5 -12.5
t7.5 -31.5q-4 -18 -18.5 -31t-32.5 -13q-16 0 -26.5 10t-10.5 25q0 6 1 9q3 19 17.5 31.5z" />
    <glyph glyph-name="divide" unicode="&#xf7;" horiz-adv-x="580" 
d="M383 634l-16 -90h-93l16 90h93zM550 402l-11 -64h-510l11 64h510zM306 199l-16 -90h-93l16 90h93z" />
    <glyph glyph-name="oslash" unicode="&#xf8;" horiz-adv-x="641" 
d="M553 470q42 -56 42 -139q0 -30 -6 -63q-15 -84 -61 -146.5t-113.5 -95.5t-144.5 -33q-107 0 -170 61l-59 -54h-43l83 76q-43 57 -43 139q0 30 6 63q15 84 61.5 146.5t114.5 95.5t145 33q53 0 96 -15.5t73 -45.5l59 54h42zM111 219q0 -55 24 -93l346 317q-23 24 -55 36.5
t-70 12.5q-54 0 -104 -24t-86.5 -73.5t-49.5 -121.5q-5 -32 -5 -54zM522 326q0 56 -24 94l-345 -317q45 -48 125 -48q54 0 103.5 24t86 73t49.5 121q5 32 5 53z" />
    <glyph glyph-name="ugrave" unicode="&#xf9;" horiz-adv-x="624" 
d="M595 546l-97 -546h-70l24 136q-33 -71 -94.5 -108.5t-133.5 -37.5q-81 0 -129.5 45t-48.5 131q0 29 6 62l56 318h70l-56 -312q-4 -23 -4 -48q0 -67 37 -102t103 -35q82 0 139.5 52.5t75.5 154.5v-3l52 293h70zM386 642l-10 -52l-183 121l11 59z" />
    <glyph glyph-name="uacute" unicode="&#xfa;" horiz-adv-x="624" 
d="M595 546l-97 -546h-70l24 136q-33 -71 -94.5 -108.5t-133.5 -37.5q-81 0 -129.5 45t-48.5 131q0 29 6 62l56 318h70l-56 -312q-4 -23 -4 -48q0 -67 37 -102t103 -35q82 0 139.5 52.5t75.5 154.5v-3l52 293h70zM540 711l-227 -121l10 52l228 128z" />
    <glyph glyph-name="ucircumflex" unicode="&#xfb;" horiz-adv-x="624" 
d="M597 546l-97 -546h-70l24 136q-33 -71 -94.5 -108.5t-133.5 -37.5q-81 0 -129.5 45t-48.5 131q0 29 6 62l56 318h70l-56 -312q-4 -23 -4 -48q0 -67 37 -102t103 -35q82 0 139.5 52.5t75.5 154.5v-3l52 293h70zM370 696l-149 -83l9 51l149 82l119 -82l-9 -51z" />
    <glyph glyph-name="udieresis" unicode="&#xfc;" horiz-adv-x="624" 
d="M600 546l-97 -546h-70l24 136q-33 -71 -94.5 -108.5t-133.5 -37.5q-81 0 -129.5 45t-48.5 131q0 29 6 62l56 318h70l-56 -312q-4 -23 -4 -48q0 -67 37 -102t103 -35q82 0 139.5 52.5t75.5 154.5v-3l52 293h70zM265.5 700.5q14.5 12.5 33.5 12.5t29.5 -12.5t7.5 -31.5
q-4 -18 -19 -31t-33 -13q-16 0 -26.5 10t-10.5 25q0 6 1 9q3 19 17.5 31.5zM422.5 700.5q14.5 12.5 33.5 12.5q18 0 28.5 -12.5t7.5 -31.5q-4 -18 -18.5 -31t-32.5 -13q-16 0 -26.5 10t-10.5 25q0 6 1 9q3 19 17.5 31.5z" />
    <glyph glyph-name="yacute" unicode="&#xfd;" horiz-adv-x="547" 
d="M107 546l110 -455l256 455h78l-464 -804h-79l157 264l-136 540h78zM499 711l-227 -121l10 52l228 128z" />
    <glyph glyph-name="thorn" unicode="&#xfe;" horiz-adv-x="673" 
d="M574.5 494q58.5 -58 58.5 -159q0 -30 -6 -63q-15 -86 -59 -149t-107.5 -96.5t-137.5 -33.5q-83 0 -134 41.5t-62 111.5l-72 -404h-70l177 998h70l-60 -337q35 69 99.5 109t145.5 40q99 0 157.5 -58zM471.5 112.5q65.5 57.5 83.5 159.5q5 32 5 52q0 79 -45.5 123
t-123.5 44q-57 0 -108 -26.5t-86.5 -76t-47.5 -115.5q-4 -23 -4 -49q0 -78 46.5 -123.5t122.5 -45.5q92 0 157.5 57.5z" />
    <glyph glyph-name="ydieresis" unicode="&#xff;" horiz-adv-x="547" 
d="M127 546l110 -455l256 455h78l-464 -804h-79l157 264l-136 540h78zM227.5 700.5q14.5 12.5 33.5 12.5t29.5 -12.5t7.5 -31.5q-4 -18 -19 -31t-33 -13q-16 0 -26.5 10t-10.5 25q0 6 1 9q3 19 17.5 31.5zM384.5 700.5q14.5 12.5 33.5 12.5q18 0 28.5 -12.5t7.5 -31.5
q-4 -18 -18.5 -31t-32.5 -13q-16 0 -26.5 10t-10.5 25q0 6 1 9q3 19 17.5 31.5z" />
    <glyph glyph-name="Amacron" unicode="&#x100;" horiz-adv-x="644" 
d="M459 172h-320l-94 -172h-76l382 689h79l138 -689h-76zM449 228l-72 380l-208 -380h280zM591 859l-10 -50h-339l9 50h340z" />
    <glyph glyph-name="amacron" unicode="&#x101;" horiz-adv-x="674" 
d="M491.5 510q51.5 -43 60.5 -114l27 150h69l-97 -546h-69l27 150q-34 -71 -100 -114t-150 -43q-98 0 -155 57.5t-57 158.5q0 33 6 69q15 84 58 146.5t106.5 95.5t137.5 33q85 0 136.5 -43zM207.5 432.5q-65.5 -58.5 -83.5 -159.5q-5 -32 -5 -53q0 -78 45 -121.5t124 -43.5
q58 0 109.5 27t86.5 76.5t46 114.5q5 28 5 50q0 78 -46 123t-123 45q-93 0 -158.5 -58.5zM561 700l-10 -50h-339l9 50h340z" />
    <glyph glyph-name="Abreve" unicode="&#x102;" horiz-adv-x="644" 
d="M455 172h-320l-94 -172h-76l382 689h79l138 -689h-76zM445 228l-72 380l-208 -380h280zM314 799.5q-29 28.5 -29 74.5q0 17 2 26l2 7h41q-2 -14 -2 -20q0 -30 21 -46.5t61 -16.5q46 0 73.5 21.5t35.5 61.5h41l-2 -7q-9 -56 -51 -92.5t-107 -36.5q-57 0 -86 28.5z" />
    <glyph glyph-name="abreve" unicode="&#x103;" horiz-adv-x="674" 
d="M492.5 510q51.5 -43 60.5 -114l27 150h69l-97 -546h-69l27 150q-34 -71 -100 -114t-150 -43q-98 0 -155 57.5t-57 158.5q0 33 6 69q15 84 58 146.5t106.5 95.5t137.5 33q85 0 136.5 -43zM208.5 432.5q-65.5 -58.5 -83.5 -159.5q-5 -32 -5 -53q0 -78 45 -121.5t124 -43.5
q58 0 109.5 27t86.5 76.5t46 114.5q5 28 5 50q0 78 -46 123t-123 45q-93 0 -158.5 -58.5zM288 640.5q-29 28.5 -29 74.5q0 17 2 26l2 7h41q-2 -14 -2 -20q0 -30 21 -46.5t61 -16.5q46 0 73.5 21.5t35.5 61.5h41l-2 -7q-9 -56 -51 -92.5t-107 -36.5q-57 0 -86 28.5z" />
    <glyph glyph-name="Aogonek" unicode="&#x104;" horiz-adv-x="644" 
d="M587 -154l-8 -43h-93q-50 0 -79 21.5t-29 59.5q0 46 30 78t89 40l-32 170h-320l-94 -172h-76l382 689h79l137 -685l-7 -38h-46q-36 0 -59.5 -16t-28.5 -44q-1 -4 -1 -12q0 -23 18 -35.5t50 -12.5h88zM454 228l-73 379l-206 -379h279z" />
    <glyph glyph-name="aogonek" unicode="&#x105;" horiz-adv-x="674" 
d="M493.5 510q51.5 -43 60.5 -114l27 150h69l-97 -546h-69l27 150q-34 -71 -100 -114t-150 -43q-98 0 -155 57.5t-57 158.5q0 33 6 69q15 84 58 146.5t106.5 95.5t137.5 33q85 0 136.5 -43zM209.5 432.5q-65.5 -58.5 -83.5 -159.5q-5 -32 -5 -53q0 -78 45 -121.5t124 -43.5
q58 0 109.5 27t86.5 76.5t46 114.5q5 28 5 50q0 78 -46 123t-123 45q-93 0 -158.5 -58.5zM555 11l-8 -40h-46q-40 0 -64.5 -18t-24.5 -49q0 -25 18 -39t50 -14h88l-8 -43h-93q-50 0 -79 23t-29 63q0 53 38.5 85t100.5 32h57z" />
    <glyph glyph-name="Cacute" unicode="&#x106;" horiz-adv-x="765" 
d="M649 650.5q72 -61.5 87 -169.5h-74q-14 76 -71 121t-153 45q-73 0 -139 -36t-111.5 -103t-61.5 -156q-6 -36 -6 -68q0 -105 58.5 -165.5t155.5 -60.5q96 0 169 45.5t114 120.5h74q-53 -108 -146.5 -169.5t-220.5 -61.5q-85 0 -147.5 35t-96 98.5t-33.5 147.5q0 40 7 78
q18 105 74.5 187t140.5 127.5t181 45.5q127 0 199 -61.5zM647 870l-227 -121l10 52l228 128z" />
    <glyph glyph-name="cacute" unicode="&#x107;" horiz-adv-x="624" 
d="M527.5 498q59.5 -55 58.5 -146h-74q0 65 -43 102.5t-116 37.5q-53 0 -101 -24t-83.5 -73.5t-48.5 -121.5q-5 -25 -5 -55q0 -81 45 -122.5t116 -41.5q73 0 129.5 37.5t78.5 102.5h74q-32 -91 -110 -146t-182 -55q-102 0 -162.5 58t-60.5 161q0 32 6 66q15 85 59.5 147
t111 95t143.5 33q105 0 164.5 -55zM546 711l-227 -121l10 52l228 128z" />
    <glyph glyph-name="Cdotaccent" unicode="&#x10a;" horiz-adv-x="765" 
d="M654 650.5q72 -61.5 87 -169.5h-74q-14 76 -71 121t-153 45q-73 0 -139 -36t-111.5 -103t-61.5 -156q-6 -36 -6 -68q0 -105 58.5 -165.5t155.5 -60.5q96 0 169 45.5t114 120.5h74q-53 -108 -146.5 -169.5t-220.5 -61.5q-85 0 -147.5 35t-96 98.5t-33.5 147.5q0 40 7 78
q18 105 74.5 187t140.5 127.5t181 45.5q127 0 199 -61.5zM450 859.5q15 12.5 33 12.5q19 0 29.5 -12.5t7.5 -31.5q-4 -18 -19 -31t-33 -13q-16 0 -26.5 10.5t-10.5 25.5q0 5 1 8q3 19 18 31.5z" />
    <glyph glyph-name="cdotaccent" unicode="&#x10b;" horiz-adv-x="624" 
d="M532.5 498q59.5 -55 58.5 -146h-74q0 65 -43 102.5t-116 37.5q-53 0 -101 -24t-83.5 -73.5t-48.5 -121.5q-5 -25 -5 -55q0 -81 45 -122.5t116 -41.5q73 0 129.5 37.5t78.5 102.5h74q-32 -91 -110 -146t-182 -55q-102 0 -162.5 58t-60.5 161q0 32 6 66q15 85 59.5 147
t111 95t143.5 33q105 0 164.5 -55zM349 700.5q15 12.5 33 12.5q19 0 29.5 -12.5t7.5 -31.5q-4 -18 -19 -31t-33 -13q-16 0 -26.5 10.5t-10.5 25.5q0 5 1 8q3 19 18 31.5z" />
    <glyph glyph-name="Ccaron" unicode="&#x10c;" horiz-adv-x="765" 
d="M651 650.5q72 -61.5 87 -169.5h-74q-14 76 -71 121t-153 45q-73 0 -139 -36t-111.5 -103t-61.5 -156q-6 -36 -6 -68q0 -105 58.5 -165.5t155.5 -60.5q96 0 169 45.5t114 120.5h74q-53 -108 -146.5 -169.5t-220.5 -61.5q-85 0 -147.5 35t-96 98.5t-33.5 147.5q0 40 7 78
q18 105 74.5 187t140.5 127.5t181 45.5q127 0 199 -61.5zM611 852l-148 -82l-120 82l9 51l121 -83l147 83z" />
    <glyph glyph-name="ccaron" unicode="&#x10d;" horiz-adv-x="624" 
d="M529.5 498q59.5 -55 58.5 -146h-74q0 65 -43 102.5t-116 37.5q-53 0 -101 -24t-83.5 -73.5t-48.5 -121.5q-5 -25 -5 -55q0 -81 45 -122.5t116 -41.5q73 0 129.5 37.5t78.5 102.5h74q-32 -91 -110 -146t-182 -55q-102 0 -162.5 58t-60.5 161q0 32 6 66q15 85 59.5 147
t111 95t143.5 33q105 0 164.5 -55zM509 693l-148 -82l-120 82l9 51l121 -83l147 83z" />
    <glyph glyph-name="Dcaron" unicode="&#x10e;" horiz-adv-x="712" 
d="M584 164.5q-57 -79.5 -148 -122t-209 -42.5h-213l124 705h213q154 0 235 -71t81 -199q0 -41 -7 -82q-19 -109 -76 -188.5zM473.5 139.5q91.5 76.5 115.5 213.5q6 36 6 69q0 106 -65.5 163.5t-194.5 57.5h-137l-102 -580h137q149 0 240.5 76.5zM593 852l-148 -82l-120 82
l9 51l121 -83l147 83z" />
    <glyph glyph-name="dcaron" unicode="&#x10f;" horiz-adv-x="717" 
d="M669 740l-131 -740h-69l26 150q-33 -71 -99 -114t-150 -43q-97 0 -154.5 58t-57.5 159q0 32 6 68q15 84 58 146.5t106.5 95.5t137.5 33q85 0 136.5 -43t60.5 -114l61 344h69zM795 655q-19 -103 -110 -103l6 35q26 0 39 13t18 39l5 25h-47l13 76h81q1 -47 -5 -85z
M194.5 432.5q-65.5 -58.5 -83.5 -159.5q-5 -32 -5 -53q0 -78 45 -121.5t124 -43.5q58 0 109.5 27t86.5 76.5t46 114.5q4 23 4 49q0 78 -45.5 123.5t-122.5 45.5q-93 0 -158.5 -58.5z" />
    <glyph glyph-name="Dcroat" unicode="&#x110;" horiz-adv-x="742" 
d="M631 634q81 -71 81 -199q0 -41 -7 -82q-19 -109 -76 -188.5t-148 -122t-209 -42.5h-213l57 324h-99l11 58h98l57 323h213q154 0 235 -71zM640 422q0 106 -65.5 163.5t-194.5 57.5h-137l-46 -261h208l-11 -58h-207l-46 -261h137q149 0 240.5 76.5t115.5 213.5q6 36 6 69z
" />
    <glyph glyph-name="dcroat" unicode="&#x111;" horiz-adv-x="668" 
d="M710 636h-59l-113 -636h-69l26 150q-33 -71 -99 -114t-150 -43q-97 0 -154.5 58t-57.5 159q0 32 6 68q15 84 58 146.5t106.5 95.5t137.5 33q85 0 136.5 -43t60.5 -114l43 240h-177l7 37h176l12 67h69l-12 -67h60zM521 322q0 78 -45.5 123.5t-122.5 45.5
q-93 0 -158.5 -58.5t-83.5 -159.5q-5 -32 -5 -53q0 -78 45 -121.5t124 -43.5q58 0 109.5 27t86.5 76.5t46 114.5q4 23 4 49z" />
    <glyph glyph-name="Emacron" unicode="&#x112;" horiz-adv-x="498" 
d="M203 648l-47 -266h276l-11 -55h-275l-47 -269h305l-10 -58h-376l124 705h376l-10 -57h-305zM532 859l-10 -50h-339l9 50h340z" />
    <glyph glyph-name="emacron" unicode="&#x113;" horiz-adv-x="625" 
d="M490 526.5q49 -26.5 74 -71.5t25 -101q0 -25 -4 -46q-5 -29 -14 -51h-451q-4 -32 -4 -45q0 -80 46 -120.5t117 -40.5q73 0 129.5 37t78.5 100h74q-31 -87 -108 -141t-182 -54q-102 0 -162.5 58t-60.5 160q0 31 6 65q15 85 60.5 148t112 96t143.5 33q71 0 120 -26.5z
M520 350q0 72 -45.5 109t-114.5 37q-82 0 -147.5 -51.5t-85.5 -151.5h386q7 29 7 57zM552 700l-10 -50h-339l9 50h340z" />
    <glyph glyph-name="Ebreve" unicode="&#x114;" horiz-adv-x="498" 
d="M199 648l-47 -266h276l-11 -55h-275l-47 -269h305l-10 -58h-376l124 705h376l-10 -57h-305zM254 799.5q-29 28.5 -29 74.5q0 17 2 26l2 7h41q-2 -14 -2 -20q0 -30 21 -46.5t61 -16.5q46 0 73.5 21.5t35.5 61.5h41l-2 -7q-9 -56 -51 -92.5t-107 -36.5q-57 0 -86 28.5z" />
    <glyph glyph-name="ebreve" unicode="&#x115;" horiz-adv-x="625" 
d="M486 526.5q49 -26.5 74 -71.5t25 -101q0 -25 -4 -46q-5 -29 -14 -51h-451q-4 -32 -4 -45q0 -80 46 -120.5t117 -40.5q73 0 129.5 37t78.5 100h74q-31 -87 -108 -141t-182 -54q-102 0 -162.5 58t-60.5 160q0 31 6 65q15 85 60.5 148t112 96t143.5 33q71 0 120 -26.5z
M516 350q0 72 -45.5 109t-114.5 37q-82 0 -147.5 -51.5t-85.5 -151.5h386q7 29 7 57zM275 640.5q-29 28.5 -29 74.5q0 17 2 26l2 7h41q-2 -14 -2 -20q0 -30 21 -46.5t61 -16.5q46 0 73.5 21.5t35.5 61.5h41l-2 -7q-9 -56 -51 -92.5t-107 -36.5q-57 0 -86 28.5z" />
    <glyph glyph-name="Edotaccent" unicode="&#x116;" horiz-adv-x="498" 
d="M202 648l-47 -266h276l-11 -55h-275l-47 -269h305l-10 -58h-376l124 705h376l-10 -57h-305zM330 859.5q15 12.5 33 12.5q19 0 29.5 -12.5t7.5 -31.5q-4 -18 -19 -31t-33 -13q-16 0 -26.5 10.5t-10.5 25.5q0 5 1 8q3 19 18 31.5z" />
    <glyph glyph-name="edotaccent" unicode="&#x117;" horiz-adv-x="625" 
d="M489 526.5q49 -26.5 74 -71.5t25 -101q0 -25 -4 -46q-5 -29 -14 -51h-451q-4 -32 -4 -45q0 -80 46 -120.5t117 -40.5q73 0 129.5 37t78.5 100h74q-31 -87 -108 -141t-182 -54q-102 0 -162.5 58t-60.5 160q0 31 6 65q15 85 60.5 148t112 96t143.5 33q71 0 120 -26.5z
M519 350q0 72 -45.5 109t-114.5 37q-82 0 -147.5 -51.5t-85.5 -151.5h386q7 29 7 57zM350 700.5q15 12.5 33 12.5q19 0 29.5 -12.5t7.5 -31.5q-4 -18 -19 -31t-33 -13q-16 0 -26.5 10.5t-10.5 25.5q0 5 1 8q3 19 18 31.5z" />
    <glyph glyph-name="Eogonek" unicode="&#x118;" horiz-adv-x="498" 
d="M196 648l-47 -266h276l-11 -55h-275l-47 -269h305l-10 -58h-376l124 705h376l-10 -57h-305zM393 29l-8 -40h-46q-40 0 -64.5 -18t-24.5 -49q0 -25 18 -39t50 -14h88l-8 -43h-93q-50 0 -79 23t-29 63q0 53 38.5 85t100.5 32h57z" />
    <glyph glyph-name="eogonek" unicode="&#x119;" horiz-adv-x="625" 
d="M497 526.5q49 -26.5 74 -71.5t25 -101q0 -25 -4 -46q-4 -22 -14 -51h-451q-4 -32 -4 -45q0 -80 46.5 -120.5t116.5 -40.5q73 0 129.5 37t78.5 100h73q-26 -76 -90 -127.5t-151 -63.5q-13 -1 -19.5 -7t-8.5 -18q-4 -24 15 -39t56 -15h82l-8 -43h-90q-51 0 -79.5 22
t-28.5 61q0 5 2 19l4 19q-91 8 -143.5 63.5t-52.5 149.5q0 31 6 64q15 86 60 149.5t111.5 97t144.5 33.5q71 0 120 -26.5zM526 351q0 72 -45.5 108.5t-113.5 36.5q-83 0 -148 -51.5t-85 -151.5h385q7 29 7 58z" />
    <glyph glyph-name="Ecaron" unicode="&#x11a;" horiz-adv-x="498" 
d="M199 648l-47 -266h276l-11 -55h-275l-47 -269h305l-10 -58h-376l124 705h376l-10 -57h-305zM490 852l-148 -82l-120 82l9 51l121 -83l147 83z" />
    <glyph glyph-name="ecaron" unicode="&#x11b;" horiz-adv-x="625" 
d="M487 526.5q49 -26.5 74 -71.5t25 -101q0 -25 -4 -46q-5 -29 -14 -51h-451q-4 -32 -4 -45q0 -80 46 -120.5t117 -40.5q73 0 129.5 37t78.5 100h74q-31 -87 -108 -141t-182 -54q-102 0 -162.5 58t-60.5 160q0 31 6 65q15 85 60.5 148t112 96t143.5 33q71 0 120 -26.5z
M517 350q0 72 -45.5 109t-114.5 37q-82 0 -147.5 -51.5t-85.5 -151.5h386q7 29 7 57zM510 693l-148 -82l-120 82l9 51l121 -83l147 83z" />
    <glyph glyph-name="Gbreve" unicode="&#x11e;" horiz-adv-x="782" 
d="M649 650.5q72 -60.5 87 -162.5h-73q-15 71 -71.5 115t-144.5 44q-76 0 -143.5 -36t-114.5 -103t-63 -156q-6 -36 -6 -69q0 -107 62.5 -167.5t166.5 -60.5q71 0 136 31.5t112 91.5t67 141h-293l9 53h354l-11 -62q-22 -92 -77.5 -164t-136 -112.5t-176.5 -40.5
q-87 0 -152 35t-99.5 99t-34.5 149q0 41 7 79q18 103 75.5 184t143 126.5t185.5 45.5q119 0 191 -60.5zM382 799.5q-29 28.5 -29 74.5q0 17 2 26l2 7h41q-2 -14 -2 -20q0 -30 21 -46.5t61 -16.5q46 0 73.5 21.5t35.5 61.5h41l-2 -7q-9 -56 -51 -92.5t-107 -36.5
q-57 0 -86 28.5z" />
    <glyph glyph-name="gbreve" unicode="&#x11f;" horiz-adv-x="673" 
d="M91.5 50q-57.5 58 -57.5 159q0 33 6 69q15 84 58.5 146.5t107 96t137.5 33.5q85 0 136.5 -43t59.5 -115l27 150h69l-99 -559q-13 -76 -55 -133.5t-104 -89t-134 -31.5q-107 0 -166.5 51.5t-67.5 139.5h69q9 -61 51.5 -95.5t118.5 -34.5q52 0 98.5 22.5t78.5 66.5t42 104
l30 163q-35 -71 -101 -114.5t-149 -43.5q-98 0 -155.5 58zM194.5 433.5q-65.5 -58.5 -83.5 -160.5q-5 -30 -5 -52q0 -78 45.5 -121.5t124.5 -43.5q58 0 109.5 27t86.5 76t46 114q4 23 4 48q0 78 -46.5 124.5t-122.5 46.5q-93 0 -158.5 -58.5zM285 640.5q-29 28.5 -29 74.5
q0 17 2 26l2 7h41q-2 -14 -2 -20q0 -30 21 -46.5t61 -16.5q46 0 73.5 21.5t35.5 61.5h41l-2 -7q-9 -56 -51 -92.5t-107 -36.5q-57 0 -86 28.5z" />
    <glyph glyph-name="Gdotaccent" unicode="&#x120;" horiz-adv-x="782" 
d="M652 650.5q72 -60.5 87 -162.5h-73q-15 71 -71.5 115t-144.5 44q-76 0 -143.5 -36t-114.5 -103t-63 -156q-6 -36 -6 -69q0 -107 62.5 -167.5t166.5 -60.5q71 0 136 31.5t112 91.5t67 141h-293l9 53h354l-11 -62q-22 -92 -77.5 -164t-136 -112.5t-176.5 -40.5
q-87 0 -152 35t-99.5 99t-34.5 149q0 41 7 79q18 103 75.5 184t143 126.5t185.5 45.5q119 0 191 -60.5zM457 859.5q15 12.5 33 12.5q19 0 29.5 -12.5t7.5 -31.5q-4 -18 -19 -31t-33 -13q-16 0 -26.5 10.5t-10.5 25.5q0 5 1 8q3 19 18 31.5z" />
    <glyph glyph-name="gdotaccent" unicode="&#x121;" horiz-adv-x="673" 
d="M95.5 50q-57.5 58 -57.5 159q0 33 6 69q15 84 58.5 146.5t107 96t137.5 33.5q85 0 136.5 -43t59.5 -115l27 150h69l-99 -559q-13 -76 -55 -133.5t-104 -89t-134 -31.5q-107 0 -166.5 51.5t-67.5 139.5h69q9 -61 51.5 -95.5t118.5 -34.5q52 0 98.5 22.5t78.5 66.5t42 104
l30 163q-35 -71 -101 -114.5t-149 -43.5q-98 0 -155.5 58zM198.5 433.5q-65.5 -58.5 -83.5 -160.5q-5 -30 -5 -52q0 -78 45.5 -121.5t124.5 -43.5q58 0 109.5 27t86.5 76t46 114q4 23 4 48q0 78 -46.5 124.5t-122.5 46.5q-93 0 -158.5 -58.5zM361 700.5q15 12.5 33 12.5
q19 0 29.5 -12.5t7.5 -31.5q-4 -18 -19 -31t-33 -13q-16 0 -26.5 10.5t-10.5 25.5q0 5 1 8q3 19 18 31.5z" />
    <glyph glyph-name="uni0122" unicode="&#x122;" horiz-adv-x="783" 
d="M650 650.5q72 -60.5 87 -162.5h-73q-15 71 -71.5 115t-144.5 44q-76 0 -143.5 -36t-114.5 -103t-63 -156q-6 -36 -6 -69q0 -107 62.5 -167.5t166.5 -60.5q71 0 136 31.5t112 91.5t67 141h-293l9 53h354l-11 -62q-22 -92 -77.5 -164t-136 -112.5t-176.5 -40.5
q-87 0 -152 35t-99.5 99t-34.5 149q0 41 7 79q18 103 75.5 184t143 126.5t185.5 45.5q119 0 191 -60.5zM383 -74q0 -20 -3 -36q-9 -56 -37.5 -82.5t-71.5 -26.5l5 33q46 0 57 60l2 8h-42l12 65h77q1 -7 1 -21z" />
    <glyph glyph-name="uni0123" unicode="&#x123;" horiz-adv-x="673" 
d="M359 680q17 103 109 103l-6 -35q-26 0 -39 -13t-18 -39l-4 -25h46l-13 -76h-81q-1 41 6 85zM91.5 50q-57.5 58 -57.5 159q0 33 6 69q15 84 58.5 146.5t107 96t137.5 33.5q85 0 136.5 -43t59.5 -115l27 150h69l-99 -559q-13 -76 -55 -133.5t-104 -89t-134 -31.5
q-107 0 -166.5 51.5t-67.5 139.5h69q9 -61 51.5 -95.5t118.5 -34.5q52 0 98.5 22.5t78.5 66.5t42 104l30 163q-35 -71 -101 -114.5t-149 -43.5q-98 0 -155.5 58zM194.5 433.5q-65.5 -58.5 -83.5 -160.5q-5 -30 -5 -52q0 -78 45.5 -121.5t124.5 -43.5q58 0 109.5 27t86.5 76
t46 114q4 23 4 48q0 78 -46.5 124.5t-122.5 46.5q-93 0 -158.5 -58.5z" />
    <glyph glyph-name="Itilde" unicode="&#x128;" horiz-adv-x="223" 
d="M216 705l-124 -705h-71l124 705h71zM188.5 852.5q12.5 -6.5 27.5 -19.5q14 -12 24 -17.5t25 -5.5q17 0 31.5 12t20.5 35h41q-13 -44 -40.5 -68.5t-62.5 -24.5q-20 0 -33.5 7t-29.5 20q-13 11 -22.5 16.5t-22.5 5.5q-36 0 -52 -48h-40q15 46 41 70t61 24q19 0 31.5 -6.5z
" />
    <glyph glyph-name="itilde" unicode="&#x129;" horiz-adv-x="223" 
d="M200 546l-97 -546h-70l97 546h70zM165.5 693.5q12.5 -6.5 27.5 -19.5q14 -12 24 -17.5t25 -5.5q17 0 31.5 12t20.5 35h41q-13 -44 -40.5 -68.5t-62.5 -24.5q-20 0 -33.5 7t-29.5 20q-13 11 -22.5 16.5t-22.5 5.5q-36 0 -52 -48h-40q15 46 41 70t61 24q19 0 31.5 -6.5z
" />
    <glyph glyph-name="Imacron" unicode="&#x12a;" horiz-adv-x="223" 
d="M216 705l-124 -705h-71l124 705h71zM382 859l-10 -50h-339l9 50h340z" />
    <glyph glyph-name="imacron" unicode="&#x12b;" horiz-adv-x="226" 
d="M200 546l-97 -546h-70l97 546h70zM354 700l-10 -50h-339l9 50h340z" />
    <glyph glyph-name="uni012C" unicode="&#x12c;" horiz-adv-x="223" 
d="M212 705l-124 -705h-71l124 705h71zM104 799.5q-29 28.5 -29 74.5q0 17 2 26l2 7h41q-2 -14 -2 -20q0 -30 21 -46.5t61 -16.5q46 0 73.5 21.5t35.5 61.5h41l-2 -7q-9 -56 -51 -92.5t-107 -36.5q-57 0 -86 28.5z" />
    <glyph glyph-name="uni012D" unicode="&#x12d;" horiz-adv-x="223" 
d="M196 546l-97 -546h-70l97 546h70zM82 640.5q-29 28.5 -29 74.5q0 17 2 26l2 7h41q-2 -14 -2 -20q0 -30 21 -46.5t61 -16.5q46 0 73.5 21.5t35.5 61.5h41l-2 -7q-9 -56 -51 -92.5t-107 -36.5q-57 0 -86 28.5z" />
    <glyph glyph-name="Iogonek" unicode="&#x12e;" horiz-adv-x="223" 
d="M208 705l-124 -705h-71l124 705h71zM85 11l-8 -40h-46q-40 0 -64.5 -18t-24.5 -49q0 -25 18 -39t50 -14h88l-8 -43h-93q-50 0 -79 23t-29 63q0 53 38.5 85t100.5 32h57z" />
    <glyph glyph-name="iogonek" unicode="&#x12f;" horiz-adv-x="221" 
d="M150 740q18 16 43 16q20 0 31.5 -10.5t11.5 -27.5q0 -24 -17.5 -40.5t-42.5 -16.5q-20 0 -32 10.5t-12 27.5q0 25 18 41zM191 546l-97 -546h-71l97 546h71zM97 11l-8 -40h-46q-40 0 -64.5 -18t-24.5 -49q0 -25 18 -39t50 -14h88l-8 -43h-93q-50 0 -79 23t-29 63
q0 53 38.5 85t100.5 32h57z" />
    <glyph glyph-name="Idotaccent" unicode="&#x130;" horiz-adv-x="223" 
d="M214 705l-124 -705h-71l124 705h71zM179 859.5q15 12.5 33 12.5q19 0 29.5 -12.5t7.5 -31.5q-4 -18 -19 -31t-33 -13q-16 0 -26.5 10.5t-10.5 25.5q0 5 1 8q3 19 18 31.5z" />
    <glyph glyph-name="dotlessi" unicode="&#x131;" horiz-adv-x="221" 
d="M194 546l-97 -546h-70l97 546h70z" />
    <glyph glyph-name="uni0136" unicode="&#x136;" horiz-adv-x="558" 
d="M204 354l270 -354h-87l-250 331l-58 -331h-71l124 705h71l-58 -330l366 330h87zM268 -53q1 -28 -2 -57q-20 -109 -110 -109l7 33q45 0 56 60l1 8h-41l11 65h78z" />
    <glyph glyph-name="uni0137" unicode="&#x137;" horiz-adv-x="465" 
d="M196 278l207 -278h-87l-177 251l-44 -251h-71l130 740h71l-76 -432l259 238h87zM215 -53q1 -7 1 -21q0 -20 -3 -36q-20 -109 -109 -109l6 33q47 0 56 60l2 8h-42l12 65h77z" />
    <glyph glyph-name="Lacute" unicode="&#x139;" horiz-adv-x="423" 
d="M92 56h256l-9 -56h-327l124 705h71zM395 870l-227 -121l10 52l228 128z" />
    <glyph glyph-name="lacute" unicode="&#x13a;" horiz-adv-x="232" 
d="M229 740l-130 -740h-71l130 740h71zM382 899l-227 -121l10 52l228 128z" />
    <glyph glyph-name="uni013B" unicode="&#x13b;" horiz-adv-x="424" 
d="M88 56h256l-9 -56h-327l124 705h71zM231 -110q-20 -109 -110 -109l7 33q45 0 56 60l1 8h-41l11 65h78q2 -35 -2 -57z" />
    <glyph glyph-name="uni013C" unicode="&#x13c;" horiz-adv-x="223" 
d="M228 740l-130 -740h-71l130 740h71zM95 -72q0 -23 -4 -38q-18 -109 -109 -109l6 33q46 0 57 60l1 8h-41l12 65h77q1 -6 1 -19z" />
    <glyph glyph-name="Lcaron" unicode="&#x13d;" horiz-adv-x="441" 
d="M92 56h256l-9 -56h-327l124 705h71zM404 620q-19 -103 -110 -103l7 35q25 0 38 13t18 39l5 25h-47l13 76h81q1 -47 -5 -85z" />
    <glyph glyph-name="lcaron" unicode="&#x13e;" horiz-adv-x="267" 
d="M229 740l-130 -740h-71l130 740h71zM358 655q-17 -103 -109 -103l6 35q26 0 39 13t18 39l4 25h-46l13 76h81q1 -41 -6 -85z" />
    <glyph glyph-name="Ldot" unicode="&#x13f;" horiz-adv-x="423" 
d="M92 56h256l-9 -56h-327l124 705h71zM290 383.5q15 12.5 33 12.5q19 0 29.5 -12.5t7.5 -31.5q-4 -18 -19 -31t-33 -13q-16 0 -26.5 10.5t-10.5 25.5q0 5 1 8q3 19 18 31.5z" />
    <glyph glyph-name="ldot" unicode="&#x140;" horiz-adv-x="265" 
d="M220 740l-130 -740h-71l130 740h71zM231 401.5q15 12.5 33 12.5q19 0 29.5 -12.5t7.5 -31.5q-4 -18 -19 -31t-33 -13q-16 0 -26.5 10.5t-10.5 25.5q0 5 1 8q3 19 18 31.5z" />
    <glyph glyph-name="Lslash" unicode="&#x141;" horiz-adv-x="442" 
d="M369 56l-9 -56h-327l57 324l-91 -35l13 71l90 35l55 310h71l-50 -281l150 58l-12 -71l-150 -58l-53 -297h256z" />
    <glyph glyph-name="lslash" unicode="&#x142;" horiz-adv-x="238" 
d="M257 478l-86 -37l-78 -441h-70l72 409l-87 -37l12 68l87 37l46 263h70l-41 -231l87 37z" />
    <glyph glyph-name="Nacute" unicode="&#x143;" horiz-adv-x="680" 
d="M540 0h-71l-282 589l-104 -589h-71l124 704h71l283 -590l103 590h71zM601 870l-227 -121l10 52l228 128z" />
    <glyph glyph-name="nacute" unicode="&#x144;" horiz-adv-x="635" 
d="M528.5 511q48.5 -45 48.5 -132q0 -28 -6 -61l-57 -318h-69l55 313q5 28 5 49q0 66 -37.5 100.5t-103.5 34.5q-82 0 -139.5 -52.5t-75.5 -154.5l-51 -290h-71l97 546h70l-24 -134q33 70 95 107t133 37q82 0 130.5 -45zM555 711l-227 -121l10 52l228 128z" />
    <glyph glyph-name="uni0145" unicode="&#x145;" horiz-adv-x="681" 
d="M537 0h-71l-282 589l-104 -589h-71l124 704h71l283 -590l103 590h71zM331 -74q0 -9 -1.5 -20t-1.5 -16q-20 -109 -109 -109l5 33q47 0 56 60l2 8h-42l12 65h77q2 -14 2 -21z" />
    <glyph glyph-name="uni0146" unicode="&#x146;" horiz-adv-x="635" 
d="M526.5 511q48.5 -45 48.5 -132q0 -28 -6 -61l-57 -318h-69l55 313q5 28 5 49q0 66 -37.5 100.5t-103.5 34.5q-82 0 -139.5 -52.5t-75.5 -154.5l-51 -290h-71l97 546h70l-24 -134q33 70 95 107t133 37q82 0 130.5 -45zM324 -53q1 -7 1 -21q0 -20 -3 -36
q-20 -109 -109 -109l6 33q46 0 57 60l1 8h-41l11 65h77z" />
    <glyph glyph-name="Ncaron" unicode="&#x147;" horiz-adv-x="680" 
d="M542 0h-71l-282 589l-104 -589h-71l124 704h71l283 -590l103 590h71zM565 852l-148 -82l-120 82l9 51l121 -83l147 83z" />
    <glyph glyph-name="ncaron" unicode="&#x148;" horiz-adv-x="635" 
d="M531.5 511q48.5 -45 48.5 -132q0 -28 -6 -61l-57 -318h-69l55 313q5 28 5 49q0 66 -37.5 100.5t-103.5 34.5q-82 0 -139.5 -52.5t-75.5 -154.5l-51 -290h-71l97 546h70l-24 -134q33 70 95 107t133 37q82 0 130.5 -45zM519 693l-148 -82l-120 82l9 51l121 -83l147 83z" />
    <glyph glyph-name="Omacron" unicode="&#x14c;" horiz-adv-x="787" 
d="M609.5 676.5q65.5 -36.5 101 -102t35.5 -152.5q0 -41 -7 -79q-18 -102 -74 -182t-140 -124.5t-182 -44.5q-90 0 -156 36.5t-101 102t-35 152.5q0 41 7 80q18 102 74 181.5t140 124t183 44.5q89 0 154.5 -36.5zM304.5 612.5q-67.5 -35.5 -114 -102t-62.5 -155.5
q-6 -36 -6 -67q0 -107 62 -168.5t165 -61.5q77 0 144.5 35.5t114 102t62.5 154.5q6 36 6 67q0 107 -62.5 169t-165.5 62q-76 0 -143.5 -35.5zM664 859l-10 -50h-339l9 50h340z" />
    <glyph glyph-name="omacron" unicode="&#x14d;" horiz-adv-x="645" 
d="M545 494q63 -59 63 -163q0 -30 -6 -63q-15 -84 -61 -146.5t-113.5 -95.5t-144.5 -33q-105 0 -168.5 59.5t-63.5 163.5q0 29 6 62q15 84 61.5 146.5t114.5 95.5t145 33q104 0 167 -59zM265 468q-50 -24 -86.5 -73.5t-49.5 -121.5q-5 -32 -5 -53q0 -81 47.5 -123t119.5 -42
q54 0 103.5 24t86 73t49.5 121q5 32 5 53q0 81 -47 123.5t-119 42.5q-54 0 -104 -24zM564 700l-10 -50h-339l9 50h340z" />
    <glyph glyph-name="uni014E" unicode="&#x14e;" horiz-adv-x="787" 
d="M603.5 676.5q65.5 -36.5 101 -102t35.5 -152.5q0 -41 -7 -79q-18 -102 -74 -182t-140 -124.5t-182 -44.5q-90 0 -156 36.5t-101 102t-35 152.5q0 41 7 80q18 102 74 181.5t140 124t183 44.5q89 0 154.5 -36.5zM298.5 612.5q-67.5 -35.5 -114 -102t-62.5 -155.5
q-6 -36 -6 -67q0 -107 62 -168.5t165 -61.5q77 0 144.5 35.5t114 102t62.5 154.5q6 36 6 67q0 107 -62.5 169t-165.5 62q-76 0 -143.5 -35.5zM384 799.5q-29 28.5 -29 74.5q0 17 2 26l2 7h41q-2 -14 -2 -20q0 -30 21 -46.5t61 -16.5q46 0 73.5 21.5t35.5 61.5h41l-2 -7
q-9 -56 -51 -92.5t-107 -36.5q-57 0 -86 28.5z" />
    <glyph glyph-name="uni014F" unicode="&#x14f;" horiz-adv-x="645" 
d="M538 494q63 -59 63 -163q0 -30 -6 -63q-15 -84 -61 -146.5t-113.5 -95.5t-144.5 -33q-105 0 -168.5 59.5t-63.5 163.5q0 29 6 62q15 84 61.5 146.5t114.5 95.5t145 33q104 0 167 -59zM258 468q-50 -24 -86.5 -73.5t-49.5 -121.5q-5 -32 -5 -53q0 -81 47.5 -123t119.5 -42
q54 0 103.5 24t86 73t49.5 121q5 32 5 53q0 81 -47 123.5t-119 42.5q-54 0 -104 -24zM284 640.5q-29 28.5 -29 74.5q0 17 2 26l2 7h41q-2 -14 -2 -20q0 -30 21 -46.5t61 -16.5q46 0 73.5 21.5t35.5 61.5h41l-2 -7q-9 -56 -51 -92.5t-107 -36.5q-57 0 -86 28.5z" />
    <glyph glyph-name="Ohungarumlaut" unicode="&#x150;" horiz-adv-x="787" 
d="M604.5 676.5q65.5 -36.5 101 -102t35.5 -152.5q0 -41 -7 -79q-18 -102 -74 -182t-140 -124.5t-182 -44.5q-90 0 -156 36.5t-101 102t-35 152.5q0 41 7 80q18 102 74 181.5t140 124t183 44.5q89 0 154.5 -36.5zM299.5 612.5q-67.5 -35.5 -114 -102t-62.5 -155.5
q-6 -36 -6 -67q0 -107 62 -168.5t165 -61.5q77 0 144.5 35.5t114 102t62.5 154.5q6 36 6 67q0 107 -62.5 169t-165.5 62q-76 0 -143.5 -35.5zM420 760h-49l90 139h59zM559 760h-49l100 139h59z" />
    <glyph glyph-name="ohungarumlaut" unicode="&#x151;" horiz-adv-x="645" 
d="M542 494q63 -59 63 -163q0 -30 -6 -63q-15 -84 -61 -146.5t-113.5 -95.5t-144.5 -33q-105 0 -168.5 59.5t-63.5 163.5q0 29 6 62q15 84 61.5 146.5t114.5 95.5t145 33q104 0 167 -59zM262 468q-50 -24 -86.5 -73.5t-49.5 -121.5q-5 -32 -5 -53q0 -81 47.5 -123t119.5 -42
q54 0 103.5 24t86 73t49.5 121q5 32 5 53q0 81 -47 123.5t-119 42.5q-54 0 -104 -24zM325 601h-49l90 139h59zM464 601h-49l100 139h59z" />
    <glyph glyph-name="OE" unicode="&#x152;" horiz-adv-x="1092" 
d="M746 382h275l-9 -55h-276l-48 -269h306l-10 -58h-376l33 189q-42 -89 -127.5 -143t-185.5 -55q-85 0 -149 36t-98.5 101t-34.5 150q0 41 7 79q18 104 75 184.5t141.5 126t183.5 45.5q66 0 119 -24.5t86.5 -69.5t40.5 -105l33 191h376l-10 -57h-305zM489 92q68 36 115 103
t63 157q6 36 6 67q0 70 -28 122t-79 79.5t-118 27.5q-77 0 -144.5 -36t-114.5 -102.5t-63 -155.5q-6 -36 -6 -68q0 -71 28 -123t79 -79.5t117 -27.5q77 0 145 36z" />
    <glyph glyph-name="oe" unicode="&#x153;" horiz-adv-x="1098" 
d="M959 526.5q49 -26.5 74 -71.5t25 -101q0 -25 -4 -46q-5 -29 -14 -51h-451q-4 -32 -4 -45q0 -80 46 -120.5t117 -40.5q73 0 129.5 37t78.5 100h74q-31 -87 -109 -141t-181 -54q-83 0 -137.5 41.5t-67.5 116.5q-39 -75 -109.5 -116.5t-154.5 -41.5q-103 0 -166 58t-63 159
q0 30 6 63q15 86 61.5 149.5t114.5 97t146 33.5q84 0 139.5 -41.5t68.5 -116.5q40 75 108.5 116.5t152.5 41.5q71 0 120 -26.5zM989 350q0 72 -45.5 109t-114.5 37q-82 0 -147.5 -51.5t-85.5 -151.5h386q7 29 7 57zM526 326q0 81 -47.5 123.5t-119.5 42.5q-54 0 -104 -24
t-86.5 -73.5t-49.5 -121.5q-5 -32 -5 -53q0 -81 47.5 -123t119.5 -42q54 0 104 24t86.5 73t49.5 121q5 32 5 53z" />
    <glyph glyph-name="Racute" unicode="&#x154;" horiz-adv-x="569" 
d="M505.5 662q50.5 -43 50.5 -118q0 -25 -4 -46q-16 -88 -75 -140t-155 -62l148 -296h-80l-142 294h-114l-51 -294h-71l124 705h216q103 0 153.5 -43zM484 532q0 112 -147 112h-140l-53 -297h140q171 0 196 147q4 28 4 38zM567 870l-227 -121l10 52l228 128z" />
    <glyph glyph-name="racute" unicode="&#x155;" horiz-adv-x="370" 
d="M267.5 524q58.5 32 134.5 32l-13 -76h-23q-80 0 -139 -42.5t-76 -138.5v1l-53 -300h-71l97 546h70l-20 -113q35 59 93.5 91zM450 711l-227 -121l10 52l228 128z" />
    <glyph glyph-name="uni0156" unicode="&#x156;" horiz-adv-x="577" 
d="M494.5 662q50.5 -43 50.5 -118q0 -25 -4 -46q-16 -88 -75 -140t-155 -62l148 -296h-80l-142 294h-114l-51 -294h-71l124 705h216q103 0 153.5 -43zM473 532q0 112 -147 112h-140l-53 -297h140q171 0 196 147q4 28 4 38zM270 -53q1 -7 1 -22q0 -13 -2 -35
q-20 -109 -110 -109l6 33q47 0 56 60l2 8h-42l12 65h77z" />
    <glyph glyph-name="uni0157" unicode="&#x157;" horiz-adv-x="370" 
d="M273.5 524q58.5 32 134.5 32l-13 -76h-23q-80 0 -139 -42.5t-76 -138.5v1l-53 -300h-71l97 546h70l-20 -113q35 59 93.5 91zM108 -53q2 -14 2 -23q0 -14 -4 -34q-20 -109 -109 -109l6 33q46 0 57 60l1 8h-41l11 65h77z" />
    <glyph glyph-name="Rcaron" unicode="&#x158;" horiz-adv-x="569" 
d="M507.5 662q50.5 -43 50.5 -118q0 -25 -4 -46q-16 -88 -75 -140t-155 -62l148 -296h-80l-142 294h-114l-51 -294h-71l124 705h216q103 0 153.5 -43zM486 532q0 112 -147 112h-140l-53 -297h140q171 0 196 147q4 28 4 38zM530 852l-148 -82l-120 82l9 51l121 -83l147 83z
" />
    <glyph glyph-name="rcaron" unicode="&#x159;" horiz-adv-x="370" 
d="M270.5 524q58.5 32 134.5 32l-13 -76h-23q-80 0 -139 -42.5t-76 -138.5v1l-53 -300h-71l97 546h70l-20 -113q35 59 93.5 91zM414 693l-148 -82l-120 82l9 51l121 -83l147 83z" />
    <glyph glyph-name="Sacute" unicode="&#x15a;" horiz-adv-x="557" 
d="M437.5 81q-28.5 -39 -78 -63.5t-116.5 -24.5q-71 0 -121 26t-75 70t-24 95h74q-2 -31 12.5 -62t48.5 -51.5t88 -20.5q63 0 103.5 34t49.5 86q3 17 3 31q0 41 -20.5 67t-50.5 40.5t-82 33.5q-57 21 -90.5 38.5t-57 49.5t-23.5 83q0 24 4 45q12 69 73.5 112t153.5 43
q69 0 116.5 -24t71 -63t25.5 -84h-75q-2 45 -36 80t-105 35q-67 0 -109.5 -35.5t-42.5 -99.5q0 -38 19.5 -62.5t48.5 -39t79 -32.5q57 -20 92 -38t59.5 -51.5t24.5 -87.5q0 -24 -4 -47q-7 -44 -35.5 -83zM542 870l-227 -121l10 52l228 128z" />
    <glyph glyph-name="sacute" unicode="&#x15b;" horiz-adv-x="509" 
d="M414 506q52 -47 51 -127h-70q2 53 -33 87.5t-107 34.5q-55 0 -88.5 -27.5t-33.5 -72.5q0 -29 17.5 -47.5t43 -29t71.5 -23.5q54 -15 87 -29.5t56 -42.5t23 -74q0 -11 -4 -37q-10 -56 -59 -90.5t-127 -34.5q-101 0 -159 46.5t-57 127.5h69q-4 -54 35.5 -88t118.5 -34
q47 0 77.5 22t36.5 57q2 16 2 22q0 32 -18.5 52.5t-45 31.5t-73.5 25q-52 15 -83 28.5t-53 39.5t-22 69q0 15 3 33q10 58 60 93t130 35q100 0 152 -47zM490 711l-227 -121l10 52l228 128z" />
    <glyph glyph-name="uni015E" unicode="&#x15e;" horiz-adv-x="558" 
d="M439.5 81q-28.5 -39 -78 -63.5t-116.5 -24.5q-71 0 -121 26t-75 70t-24 95h74q-2 -31 12.5 -62t48.5 -51.5t88 -20.5q63 0 103.5 34t49.5 86q3 17 3 31q0 41 -20.5 67t-50.5 40.5t-82 33.5q-57 21 -90.5 38.5t-57 49.5t-23.5 83q0 24 4 45q12 69 73.5 112t153.5 43
q69 0 116.5 -24t71 -63t25.5 -84h-75q-2 45 -36 80t-105 35q-67 0 -109.5 -35.5t-42.5 -99.5q0 -38 19.5 -62.5t48.5 -39t79 -32.5q57 -20 92 -38t59.5 -51.5t24.5 -87.5q0 -24 -4 -47q-7 -44 -35.5 -83zM327 -90.5q31 -19.5 31 -59.5q0 -54 -37 -81t-97 -27h-92l8 43h83
q83 0 83 59q0 20 -16 32t-49 12h-49l21 119h47l-15 -81q51 3 82 -16.5z" />
    <glyph glyph-name="uni015F" unicode="&#x15f;" horiz-adv-x="509" 
d="M417 506q52 -47 51 -127h-70q2 53 -33 87.5t-107 34.5q-55 0 -88.5 -27.5t-33.5 -72.5q0 -29 17.5 -47.5t43 -29t71.5 -23.5q54 -15 87 -29.5t56 -42.5t23 -74q0 -11 -4 -37q-10 -56 -59 -90.5t-127 -34.5q-101 0 -159 46.5t-57 127.5h69q-4 -54 35.5 -88t118.5 -34
q47 0 77.5 22t36.5 57q2 16 2 22q0 32 -18.5 52.5t-45 31.5t-73.5 25q-52 15 -83 28.5t-53 39.5t-22 69q0 15 3 33q10 58 60 93t130 35q100 0 152 -47zM328 -90.5q31 -19.5 31 -59.5q0 -54 -37 -81t-97 -27h-92l8 43h83q83 0 83 59q0 20 -16 32t-49 12h-49l21 119h47
l-15 -81q51 3 82 -16.5z" />
    <glyph glyph-name="Scaron" unicode="&#x160;" horiz-adv-x="558" 
d="M440.5 81q-28.5 -39 -78 -63.5t-116.5 -24.5q-71 0 -121 26t-75 70t-24 95h74q-2 -31 12.5 -62t48.5 -51.5t88 -20.5q63 0 103.5 34t49.5 86q3 17 3 31q0 41 -20.5 67t-50.5 40.5t-82 33.5q-57 21 -90.5 38.5t-57 49.5t-23.5 83q0 24 4 45q12 69 73.5 112t153.5 43
q69 0 116.5 -24t71 -63t25.5 -84h-75q-2 45 -36 80t-105 35q-67 0 -109.5 -35.5t-42.5 -99.5q0 -38 19.5 -62.5t48.5 -39t79 -32.5q57 -20 92 -38t59.5 -51.5t24.5 -87.5q0 -24 -4 -47q-7 -44 -35.5 -83zM505 852l-148 -82l-120 82l9 51l121 -83l147 83z" />
    <glyph glyph-name="scaron" unicode="&#x161;" horiz-adv-x="509" 
d="M416 506q52 -47 51 -127h-70q2 53 -33 87.5t-107 34.5q-55 0 -88.5 -27.5t-33.5 -72.5q0 -29 17.5 -47.5t43 -29t71.5 -23.5q54 -15 87 -29.5t56 -42.5t23 -74q0 -11 -4 -37q-10 -56 -59 -90.5t-127 -34.5q-101 0 -159 46.5t-57 127.5h69q-4 -54 35.5 -88t118.5 -34
q47 0 77.5 22t36.5 57q2 16 2 22q0 32 -18.5 52.5t-45 31.5t-73.5 25q-52 15 -83 28.5t-53 39.5t-22 69q0 15 3 33q10 58 60 93t130 35q100 0 152 -47zM453 693l-148 -82l-120 82l9 51l121 -83l147 83z" />
    <glyph glyph-name="uni0162" unicode="&#x162;" horiz-adv-x="507" 
d="M551 705l-11 -57h-200l-114 -645q94 -9 94 -71q0 -10 -1 -16q-8 -45 -45 -70t-90 -25h-89l8 44h82q39 0 58 13.5t24 39.5l1 9q0 41 -65 41h-54l120 680h-200l11 57h471z" />
    <glyph glyph-name="uni0163" unicode="&#x163;" horiz-adv-x="363" 
d="M144 163q-4 -28 -4 -37q0 -36 19 -50t62 -14h56l-10 -62h-66h-8l-13 -74q52 3 82.5 -15t30.5 -55q0 -5 -2 -19q-8 -46 -44 -70.5t-90 -24.5h-90l7 43h83q73 0 83 53q1 3 1 10q0 40 -66 40h-49l21 117q-39 9 -58.5 34.5t-19.5 70.5q0 29 5 54l56 321h-83l11 61h83l24 138
h71l-24 -138h150l-11 -61h-150z" />
    <glyph glyph-name="Tcaron" unicode="&#x164;" horiz-adv-x="507" 
d="M551 705l-10 -57h-201l-114 -648h-70l114 648h-200l10 57h471zM479 852l-148 -82l-120 82l9 51l121 -83l147 83z" />
    <glyph glyph-name="tcaron" unicode="&#x165;" horiz-adv-x="360" 
d="M391 778q0 -53 -5 -83q-18 -98 -109 -98l6 35q25 0 38 10.5t17 32.5l5 26h-47l14 77h81zM206 546h150l-10 -61h-151l-57 -322q-4 -20 -4 -38q0 -35 19.5 -49t62.5 -14h56l-12 -62h-65q-67 0 -99.5 26t-32.5 86q0 20 5 52l57 321h-84l11 61h84l24 138h70z" />
    <glyph glyph-name="Utilde" unicode="&#x168;" horiz-adv-x="652" 
d="M210 705l-75 -427q-7 -35 -7 -69q0 -77 40.5 -113.5t112.5 -36.5q85 0 143 53t79 166l75 427h70l-75 -427q-26 -143 -107.5 -214t-197.5 -71q-99 0 -155 51.5t-56 154.5q0 38 7 79l76 427h70zM400.5 852.5q12.5 -6.5 27.5 -19.5q14 -12 24 -17.5t25 -5.5q17 0 31.5 12
t20.5 35h41q-13 -44 -40.5 -68.5t-62.5 -24.5q-20 0 -33.5 7t-29.5 20q-13 11 -22.5 16.5t-22.5 5.5q-36 0 -52 -48h-40q15 46 41 70t61 24q19 0 31.5 -6.5z" />
    <glyph glyph-name="utilde" unicode="&#x169;" horiz-adv-x="624" 
d="M601 546l-97 -546h-70l24 136q-33 -71 -94.5 -108.5t-133.5 -37.5q-81 0 -129.5 45t-48.5 131q0 29 6 62l56 318h70l-56 -312q-4 -23 -4 -48q0 -67 37 -102t103 -35q82 0 139.5 52.5t75.5 154.5v-3l52 293h70zM352.5 693.5q12.5 -6.5 27.5 -19.5q14 -12 24 -17.5t25 -5.5
q17 0 31.5 12t20.5 35h41q-13 -44 -40.5 -68.5t-62.5 -24.5q-20 0 -33.5 7t-29.5 20q-13 11 -22.5 16.5t-22.5 5.5q-36 0 -52 -48h-40q15 46 41 70t61 24q19 0 31.5 -6.5z" />
    <glyph glyph-name="Umacron" unicode="&#x16a;" horiz-adv-x="652" 
d="M210 705l-75 -427q-7 -35 -7 -69q0 -77 40.5 -113.5t112.5 -36.5q85 0 143 53t79 166l75 427h70l-75 -427q-26 -143 -107.5 -214t-197.5 -71q-99 0 -155 51.5t-56 154.5q0 38 7 79l76 427h70zM594 859l-10 -50h-339l9 50h340z" />
    <glyph glyph-name="umacron" unicode="&#x16b;" horiz-adv-x="624" 
d="M601 546l-97 -546h-70l24 136q-33 -71 -94.5 -108.5t-133.5 -37.5q-81 0 -129.5 45t-48.5 131q0 29 6 62l56 318h70l-56 -312q-4 -23 -4 -48q0 -67 37 -102t103 -35q82 0 139.5 52.5t75.5 154.5v-3l52 293h70zM546 700l-10 -50h-339l9 50h340z" />
    <glyph glyph-name="Ubreve" unicode="&#x16c;" horiz-adv-x="652" 
d="M206 705l-75 -427q-7 -35 -7 -69q0 -77 40.5 -113.5t112.5 -36.5q85 0 143 53t79 166l75 427h70l-75 -427q-26 -143 -107.5 -214t-197.5 -71q-99 0 -155 51.5t-56 154.5q0 38 7 79l76 427h70zM316 799.5q-29 28.5 -29 74.5q0 17 2 26l2 7h41q-2 -14 -2 -20
q0 -30 21 -46.5t61 -16.5q46 0 73.5 21.5t35.5 61.5h41l-2 -7q-9 -56 -51 -92.5t-107 -36.5q-57 0 -86 28.5z" />
    <glyph glyph-name="ubreve" unicode="&#x16d;" horiz-adv-x="624" 
d="M597 546l-97 -546h-70l24 136q-33 -71 -94.5 -108.5t-133.5 -37.5q-81 0 -129.5 45t-48.5 131q0 29 6 62l56 318h70l-56 -312q-4 -23 -4 -48q0 -67 37 -102t103 -35q82 0 139.5 52.5t75.5 154.5v-3l52 293h70zM268 640.5q-29 28.5 -29 74.5q0 17 2 26l2 7h41
q-2 -14 -2 -20q0 -30 21 -46.5t61 -16.5q46 0 73.5 21.5t35.5 61.5h41l-2 -7q-9 -56 -51 -92.5t-107 -36.5q-57 0 -86 28.5z" />
    <glyph glyph-name="Uring" unicode="&#x16e;" horiz-adv-x="652" 
d="M200 705l-75 -427q-7 -35 -7 -69q0 -77 40.5 -113.5t112.5 -36.5q85 0 143 53t79 166l75 427h70l-75 -427q-26 -143 -107.5 -214t-197.5 -71q-99 0 -155 51.5t-56 154.5q0 38 7 79l76 427h70zM487.5 948.5q23.5 -21.5 23.5 -58.5q0 -36 -17 -63.5t-45 -42.5t-59 -15
q-37 0 -60.5 21.5t-23.5 57.5t17 64t44.5 43t58.5 15q38 0 61.5 -21.5zM365.5 913q-22.5 -22 -22.5 -58q0 -24 14.5 -38t38.5 -14q32 0 54.5 22t22.5 58q0 24 -14.5 38t-38.5 14q-32 0 -54.5 -22z" />
    <glyph glyph-name="uring" unicode="&#x16f;" horiz-adv-x="624" 
d="M591 546l-97 -546h-70l24 136q-33 -71 -94.5 -108.5t-133.5 -37.5q-81 0 -129.5 45t-48.5 131q0 29 6 62l56 318h70l-56 -312q-4 -23 -4 -48q0 -67 37 -102t103 -35q82 0 139.5 52.5t75.5 154.5v-3l52 293h70zM440.5 789.5q23.5 -21.5 23.5 -58.5q0 -36 -17 -63.5
t-45 -42.5t-59 -15q-37 0 -60.5 21.5t-23.5 57.5t17 64t44.5 43t58.5 15q38 0 61.5 -21.5zM318.5 754q-22.5 -22 -22.5 -58q0 -24 14.5 -38t38.5 -14q32 0 54.5 22t22.5 58q0 24 -14.5 38t-38.5 14q-32 0 -54.5 -22z" />
    <glyph glyph-name="Uhungarumlaut" unicode="&#x170;" horiz-adv-x="652" 
d="M206 705l-75 -427q-7 -35 -7 -69q0 -77 40.5 -113.5t112.5 -36.5q85 0 143 53t79 166l75 427h70l-75 -427q-26 -143 -107.5 -214t-197.5 -71q-99 0 -155 51.5t-56 154.5q0 38 7 79l76 427h70zM337 760h-49l90 139h59zM476 760h-49l100 139h59z" />
    <glyph glyph-name="uhungarumlaut" unicode="&#x171;" horiz-adv-x="624" 
d="M598 546l-97 -546h-70l24 136q-33 -71 -94.5 -108.5t-133.5 -37.5q-81 0 -129.5 45t-48.5 131q0 29 6 62l56 318h70l-56 -312q-4 -23 -4 -48q0 -67 37 -102t103 -35q82 0 139.5 52.5t75.5 154.5v-3l52 293h70zM289 601h-49l90 139h59zM428 601h-49l100 139h59z" />
    <glyph glyph-name="Uogonek" unicode="&#x172;" horiz-adv-x="652" 
d="M209 705l-76 -427q-6 -37 -6 -67q0 -78 40 -115t113 -37q183 0 221 219l76 427h70l-76 -427q-23 -131 -93.5 -200t-171.5 -81q-38 -5 -59 -24t-21 -50q0 -23 18 -35.5t51 -12.5h84l-8 -43h-95q-48 0 -75.5 22t-27.5 61q0 6 2 20q4 21 18 38t33 23q-78 13 -124 65.5
t-46 143.5q0 37 7 73l75 427h71z" />
    <glyph glyph-name="uogonek" unicode="&#x173;" horiz-adv-x="624" 
d="M589 546l-97 -546h-70l24 136q-33 -71 -94.5 -108.5t-133.5 -37.5q-81 0 -129.5 45t-48.5 131q0 29 6 62l56 318h70l-56 -312q-4 -23 -4 -48q0 -67 37 -102t103 -35q82 0 139.5 52.5t75.5 154.5v-3l52 293h70zM495 11l-8 -40h-46q-40 0 -64.5 -18t-24.5 -49q0 -25 18 -39
t50 -14h88l-8 -43h-93q-50 0 -79 23t-29 63q0 53 38.5 85t100.5 32h57z" />
    <glyph glyph-name="Wcircumflex" unicode="&#x174;" horiz-adv-x="953" 
d="M981 705l-306 -705h-84l-70 604l-283 -604h-84l-58 705h78l38 -618l287 618h79l70 -619l256 619h77zM569 855l-149 -83l9 51l149 82l119 -82l-9 -51z" />
    <glyph glyph-name="wcircumflex" unicode="&#x175;" horiz-adv-x="828" 
d="M859 546l-258 -546h-73l-83 465l-247 -465h-74l-64 546h72l46 -473l247 473h72l82 -473l213 473h67zM480 696l-149 -83l9 51l149 82l119 -82l-9 -51z" />
    <glyph glyph-name="Ycircumflex" unicode="&#x176;" horiz-adv-x="571" 
d="M611 705l-303 -430l-48 -275h-71l48 275l-152 430h81l119 -356l245 356h81zM378 855l-149 -83l9 51l149 82l119 -82l-9 -51z" />
    <glyph glyph-name="ycircumflex" unicode="&#x177;" horiz-adv-x="547" 
d="M123 546l110 -455l256 455h78l-464 -804h-79l157 264l-136 540h78zM330 696l-149 -83l9 51l149 82l119 -82l-9 -51z" />
    <glyph glyph-name="Ydieresis" unicode="&#x178;" horiz-adv-x="571" 
d="M614 705l-303 -430l-48 -275h-71l48 275l-152 430h81l119 -356l245 356h81zM272.5 859.5q14.5 12.5 33.5 12.5t29.5 -12.5t7.5 -31.5q-4 -18 -19 -31t-33 -13q-16 0 -26.5 10t-10.5 25q0 6 1 9q3 19 17.5 31.5zM429.5 859.5q14.5 12.5 33.5 12.5q18 0 28.5 -12.5
t7.5 -31.5q-4 -18 -18.5 -31t-32.5 -13q-16 0 -26.5 10t-10.5 25q0 6 1 9q3 19 17.5 31.5z" />
    <glyph glyph-name="Zacute" unicode="&#x179;" horiz-adv-x="523" 
d="M63 59h367l-10 -59h-445l9 56l464 590h-349l10 59h428l-10 -57zM523 870l-227 -121l10 52l228 128z" />
    <glyph glyph-name="zacute" unicode="&#x17a;" horiz-adv-x="435" 
d="M67 60h303l-11 -60h-380l11 57l365 430h-282l11 59h362l-11 -57zM448 711l-227 -121l10 52l228 128z" />
    <glyph glyph-name="Zdotaccent" unicode="&#x17b;" horiz-adv-x="523" 
d="M68 59h367l-10 -59h-445l9 56l464 590h-349l10 59h428l-10 -57zM326 859.5q15 12.5 33 12.5q19 0 29.5 -12.5t7.5 -31.5q-4 -18 -19 -31t-33 -13q-16 0 -26.5 10.5t-10.5 25.5q0 5 1 8q3 19 18 31.5z" />
    <glyph glyph-name="zdotaccent" unicode="&#x17c;" horiz-adv-x="435" 
d="M70 60h303l-11 -60h-380l11 57l365 430h-282l11 59h362l-11 -57zM251 700.5q15 12.5 33 12.5q19 0 29.5 -12.5t7.5 -31.5q-4 -18 -19 -31t-33 -13q-16 0 -26.5 10.5t-10.5 25.5q0 5 1 8q3 19 18 31.5z" />
    <glyph glyph-name="Zcaron" unicode="&#x17d;" horiz-adv-x="523" 
d="M65 59h367l-10 -59h-445l9 56l464 590h-349l10 59h428l-10 -57zM486 852l-148 -82l-120 82l9 51l121 -83l147 83z" />
    <glyph glyph-name="zcaron" unicode="&#x17e;" horiz-adv-x="435" 
d="M70 60h303l-11 -60h-380l11 57l365 430h-282l11 59h362l-11 -57zM417 693l-148 -82l-120 82l9 51l121 -83l147 83z" />
    <glyph glyph-name="florin" unicode="&#x192;" horiz-adv-x="333" 
d="M317 677q-38 -25 -53 -78l-15 -53h132l-16 -60h-133l-151 -536q-20 -67 -60 -98.5t-109 -31.5h-31l16 61h29q35 0 53.5 14.5t30.5 54.5l152 536h-75l15 60h77l15 53q24 85 83 124.5t156 39.5l-16 -61q-62 0 -100 -25z" />
    <glyph glyph-name="uni01FC" unicode="&#x1fc;" horiz-adv-x="874" 
d="M575 648l-46 -265h273l-10 -56h-273l-48 -269h303l-10 -58h-373l30 170h-271l-129 -170h-78l534 705h411l-10 -57h-303zM503 635l-311 -410h239zM775 870l-227 -121l10 52l228 128z" />
    <glyph glyph-name="uni01FD" unicode="&#x1fd;" horiz-adv-x="1115" 
d="M1022.5 497.5q53.5 -55.5 53.5 -140.5q0 -28 -4 -49q-5 -29 -14 -51h-461q-3 -22 -3 -43q0 -81 47.5 -122.5t119.5 -41.5q75 0 133 37t80 101h74q-31 -87 -105 -141t-172 -54q-81 0 -134.5 41t-60.5 117l-26 -151h-70l27 150q-34 -71 -100 -114t-150 -43
q-97 0 -154.5 57.5t-57.5 157.5q0 31 6 65q15 86 59 149.5t107.5 97t138.5 33.5q84 0 134.5 -43t59.5 -114l27 150h70l-27 -150q34 76 99 116.5t151 40.5q99 0 152.5 -55.5zM1007 348q0 72 -47.5 110t-117.5 38q-87 0 -152 -50.5t-86 -152.5h396q7 28 7 55zM533 321
q0 78 -46 124t-123 46q-93 0 -158.5 -58.5t-83.5 -159.5q-5 -30 -5 -52q0 -78 45 -122t124 -44q59 0 110 27t86 76.5t47 114.5q4 23 4 48zM794 711l-227 -121l10 52l228 128z" />
    <glyph glyph-name="uni0218" unicode="&#x218;" horiz-adv-x="559" 
d="M435.5 81q-28.5 -39 -78 -63.5t-116.5 -24.5q-71 0 -121 26t-75 70t-24 95h74q-2 -31 12.5 -62t48.5 -51.5t88 -20.5q63 0 103.5 34t49.5 86q3 17 3 31q0 41 -20.5 67t-50.5 40.5t-82 33.5q-57 21 -90.5 38.5t-57 49.5t-23.5 83q0 24 4 45q12 69 73.5 112t153.5 43
q69 0 116.5 -24t71 -63t25.5 -84h-75q-2 45 -36 80t-105 35q-67 0 -109.5 -35.5t-42.5 -99.5q0 -38 19.5 -62.5t48.5 -39t79 -32.5q57 -20 92 -38t59.5 -51.5t24.5 -87.5q0 -24 -4 -47q-7 -44 -35.5 -83zM291 -74q0 -20 -3 -36q-20 -109 -109 -109l6 33q47 0 56 60l2 8h-42
l11 65h78q1 -7 1 -21z" />
    <glyph glyph-name="uni0219" unicode="&#x219;" horiz-adv-x="509" 
d="M415 506q52 -47 51 -127h-70q2 53 -33 87.5t-107 34.5q-55 0 -88.5 -27.5t-33.5 -72.5q0 -29 17.5 -47.5t43 -29t71.5 -23.5q54 -15 87 -29.5t56 -42.5t23 -74q0 -11 -4 -37q-10 -56 -59 -90.5t-127 -34.5q-101 0 -159 46.5t-57 127.5h69q-4 -54 35.5 -88t118.5 -34
q47 0 77.5 22t36.5 57q2 16 2 22q0 32 -18.5 52.5t-45 31.5t-73.5 25q-52 15 -83 28.5t-53 39.5t-22 69q0 15 3 33q10 58 60 93t130 35q100 0 152 -47zM252 -110q-18 -109 -109 -109l6 33q46 0 57 60l1 8h-41l12 65h77q2 -31 -3 -57z" />
    <glyph glyph-name="uni021A" unicode="&#x21a;" horiz-adv-x="507" 
d="M545 705l-10 -57h-201l-114 -648h-70l114 648h-200l10 57h471zM216 -74q0 -20 -3 -36q-20 -109 -109 -109l6 33q24 0 37.5 15t18.5 45l1 8h-41l12 65h77q1 -7 1 -21z" />
    <glyph glyph-name="uni021B" unicode="&#x21b;" horiz-adv-x="363" 
d="M151 163q-4 -20 -4 -38q0 -35 19.5 -49t62.5 -14h56l-12 -62h-65q-67 0 -99.5 26t-32.5 86q0 20 5 52l57 321h-84l11 61h84l24 138h70l-24 -138h150l-10 -61h-151zM206 -53q2 -14 2 -21q0 -9 -1.5 -20t-1.5 -16q-20 -109 -109 -109l5 33q47 0 56 60l2 8h-41l11 65h77z
" />
    <glyph glyph-name="uni02BC" unicode="&#x2bc;" horiz-adv-x="162" 
d="M129 689q-19 -103 -110 -103l7 35q25 0 38 13t18 39l5 25h-47l13 76h81q1 -47 -5 -85z" />
    <glyph glyph-name="circumflex" unicode="&#x2c6;" horiz-adv-x="333" 
d="M230 696l-149 -83l9 51l149 82l119 -82l-9 -51z" />
    <glyph glyph-name="caron" unicode="&#x2c7;" horiz-adv-x="333" 
d="M363 693l-148 -82l-120 82l9 51l121 -83l147 83z" />
    <glyph glyph-name="uni02C9" unicode="&#x2c9;" horiz-adv-x="405" 
d="M437 700l-10 -50h-339l9 50h340z" />
    <glyph glyph-name="breve" unicode="&#x2d8;" horiz-adv-x="336" 
d="M130 640.5q-29 28.5 -29 74.5q0 17 2 26l2 7h41q-2 -14 -2 -20q0 -30 21 -46.5t61 -16.5q46 0 73.5 21.5t35.5 61.5h41l-2 -7q-9 -56 -51 -92.5t-107 -36.5q-57 0 -86 28.5z" />
    <glyph glyph-name="dotaccent" unicode="&#x2d9;" horiz-adv-x="164" 
d="M116 700.5q15 12.5 33 12.5q19 0 29.5 -12.5t7.5 -31.5q-4 -18 -19 -31t-33 -13q-16 0 -26.5 10.5t-10.5 25.5q0 5 1 8q3 19 18 31.5z" />
    <glyph glyph-name="ring" unicode="&#x2da;" horiz-adv-x="266" 
d="M272.5 789.5q23.5 -21.5 23.5 -58.5q0 -36 -17 -63.5t-45 -42.5t-59 -15q-37 0 -60.5 21.5t-23.5 57.5t17 64t44.5 43t58.5 15q38 0 61.5 -21.5zM150.5 754q-22.5 -22 -22.5 -58q0 -24 14.5 -38t38.5 -14q32 0 54.5 22t22.5 58q0 24 -14.5 38t-38.5 14q-32 0 -54.5 -22z
" />
    <glyph glyph-name="ogonek" unicode="&#x2db;" horiz-adv-x="277" 
d="M224 -21l-8 -40h-46q-40 0 -64.5 -18t-24.5 -49q0 -25 18 -39t50 -14h88l-8 -43h-93q-50 0 -79 23t-29 63q0 53 38.5 85t100.5 32h57z" />
    <glyph glyph-name="tilde" unicode="&#x2dc;" horiz-adv-x="347" 
d="M215.5 693.5q12.5 -6.5 27.5 -19.5q14 -12 24 -17.5t25 -5.5q17 0 31.5 12t20.5 35h41q-13 -44 -40.5 -68.5t-62.5 -24.5q-20 0 -33.5 7t-29.5 20q-13 11 -22.5 16.5t-22.5 5.5q-36 0 -52 -48h-40q15 46 41 70t61 24q19 0 31.5 -6.5z" />
    <glyph glyph-name="hungarumlaut" unicode="&#x2dd;" horiz-adv-x="338" 
d="M129 601h-49l90 139h59zM268 601h-49l100 139h59z" />
    <glyph glyph-name="pi" unicode="&#x3c0;" horiz-adv-x="718" 
d="M716 546l-10 -55h-82l-86 -491h-71l87 491h-313l-86 -491h-71l87 491h-82l11 55h616z" />
    <glyph glyph-name="dvCandrabindu" unicode="&#x901;" horiz-adv-x="0" 
d="M-59 989q-8 8 -8 22q0 18 12.5 30t30.5 12q14 0 23 -8t9 -21q0 -18 -13.5 -30.5t-31.5 -12.5q-14 0 -22 8zM-187.5 860q-45.5 40 -45.5 99q0 15 3 28h53q-2 -14 -2 -20q0 -42 30.5 -70.5t91.5 -28.5q46 0 81 17t55.5 44.5t25.5 57.5h53q-12 -70 -68.5 -118.5
t-149.5 -48.5q-82 0 -127.5 40z" />
    <glyph glyph-name="dvAnusvara" unicode="&#x902;" horiz-adv-x="0" 
d="M-89 851.5q-11 10.5 -11 26.5q0 6 1 9q3 20 18.5 33.5t35.5 13.5q18 0 29 -10.5t11 -27.5q0 -22 -16.5 -38.5t-38.5 -16.5q-18 0 -29 10.5z" />
    <glyph glyph-name="dvVisarga" unicode="&#x903;" horiz-adv-x="219" 
d="M100 462.5q-11 10.5 -11 26.5q0 6 1 9q3 20 19 33.5t36 13.5t31 -13.5t8 -33.5q-4 -20 -19.5 -33t-35.5 -13q-18 0 -29 10.5zM46 155.5q-11 10.5 -11 26.5q0 22 16.5 38.5t39.5 16.5q17 0 28 -10.5t11 -26.5q0 -6 -1 -9q-3 -19 -18.5 -32.5t-35.5 -13.5q-18 0 -29 10.5z
" />
    <glyph glyph-name="dvA" unicode="&#x905;" horiz-adv-x="823" 
d="M917 740l-8 -54h-141l-121 -686h-64l61 344l-181 1q14 -31 14 -67q0 -17 -3 -35q-15 -86 -79.5 -138.5t-155.5 -52.5q-85 0 -136 44.5t-51 117.5q0 11 4 39h60q-2 -10 -2 -28q0 -53 35.5 -85.5t95.5 -32.5q66 0 113 39.5t58 102.5q3 14 3 28q0 39 -22 68h-2v3
q-33 41 -107 41h-38l10 52h37q46 0 81 17.5t56 45.5t26 59q3 15 3 27q0 49 -32.5 76.5t-84.5 27.5q-62 0 -110 -34.5t-57 -91.5h-59q15 83 80.5 132t154.5 49q76 0 122 -38.5t46 -104.5q0 -16 -3 -33q-11 -59 -50.5 -100.5t-103.5 -55.5v-1q29 -5 50 -18h238l60 342h203z
" />
    <glyph glyph-name="dvAA" unicode="&#x906;" horiz-adv-x="1110" 
d="M917 740l-8 -54h-141l-121 -686h-64l61 344l-181 1q14 -31 14 -67q0 -17 -3 -35q-15 -86 -79.5 -138.5t-155.5 -52.5q-85 0 -136 44.5t-51 117.5q0 11 4 39h60q-2 -10 -2 -28q0 -53 35.5 -85.5t95.5 -32.5q66 0 113 39.5t58 102.5q3 14 3 28q0 39 -22 68h-2v3
q-33 41 -107 41h-38l10 52h37q46 0 81 17.5t56 45.5t26 59q3 15 3 27q0 49 -32.5 76.5t-84.5 27.5q-62 0 -110 -34.5t-57 -91.5h-59q15 83 80.5 132t154.5 49q76 0 122 -38.5t46 -104.5q0 -16 -3 -33q-11 -59 -50.5 -100.5t-103.5 -55.5v-1q29 -5 50 -18h238l60 342h203z
M990 686h-141l10 54h345l-10 -54h-140l-120 -686h-64z" />
    <glyph glyph-name="dvI" unicode="&#x907;" horiz-adv-x="583" 
d="M526 686l-23 -132l-2 -9l-2 -13l-5 -26h-174q-58 0 -101.5 -20.5t-52.5 -73.5q-2 -14 -2 -18q0 -38 30 -56t77 -18h45q77 0 127.5 -32.5t50.5 -102.5q0 -16 -3 -36q-13 -71 -66 -116t-140 -45q-55 0 -91.5 17.5t-54.5 41.5t-22 44l-29 -166h-60l44 255h57q-5 -63 33 -103
t113 -40q50 0 85.5 20t53.5 52.5t18 69.5q0 51 -38 72.5t-97 21.5h-51q-64 2 -105 30.5t-41 83.5q0 12 3 27q12 74 71 107t136 33h131l23 132h-442l9 54h662l-9 -54h-158z" />
    <glyph glyph-name="dvII" unicode="&#x908;" horiz-adv-x="581" 
d="M773.5 971q33.5 -32 33.5 -87q0 -21 -4 -40h-57q3 14 3 26q0 36 -21 57.5t-57 21.5q-101 0 -124 -132l-13 -77h159l-9 -54h-158l-23 -132l-2 -9l-2 -13l-5 -26h-174q-58 0 -101.5 -20.5t-52.5 -73.5q-2 -14 -2 -18q0 -38 30 -56t77 -18h45q77 0 127.5 -32.5t50.5 -102.5
q0 -16 -3 -36q-13 -71 -66 -116t-140 -45q-55 0 -91.5 17.5t-54.5 41.5t-22 44l-29 -166h-60l44 255h57q-5 -63 33 -103t113 -40q50 0 85.5 20t53.5 52.5t18 69.5q0 51 -38 72.5t-97 21.5h-51q-64 2 -105 30.5t-41 83.5q0 12 3 27q12 74 71 107t136 33h131l23 132h-441l9 54
h442l14 77q16 87 64 136.5t127 49.5q61 0 94.5 -32z" />
    <glyph glyph-name="dvU" unicode="&#x909;" horiz-adv-x="578" 
d="M662 686h-131l-20 -115q-10 -61 -50 -103t-92 -51l-1 -1q55 -11 86 -53.5t31 -102.5q0 -14 -4 -42q-11 -63 -45.5 -111.5t-88.5 -76t-121 -27.5q-61 0 -106.5 23t-70.5 64t-25 94q0 12 4 40h62q-3 -15 -3 -30q0 -59 41 -96.5t105 -37.5q72 0 123.5 45t64.5 117q3 17 3 34
q0 55 -34 92.5t-106 37.5h-42l10 56h35q68 0 111 37.5t53 96.5l19 110h-444l10 54h636z" />
    <glyph glyph-name="dvUU" unicode="&#x90a;" horiz-adv-x="868" 
d="M461 468q-40 -42 -92 -51v-1h214q91 0 146 -38t55 -117q0 -22 -4 -42q-17 -95 -79.5 -142t-149.5 -47q-20 0 -43 3l9 49l34 -1q63 0 109 33.5t59 106.5q3 17 3 31q0 58 -40.5 85t-106.5 27h-126q35 -43 35 -108q0 -13 -4 -41q-11 -61 -45.5 -109t-88 -75.5t-120.5 -27.5
q-61 0 -106.5 23t-70.5 64t-25 94q0 12 4 40h62q-3 -15 -3 -30q0 -59 41 -96.5t105 -37.5q72 0 123.5 45t64.5 117q3 17 3 34q0 55 -34 92.5t-106 37.5h-42l10 56h35q68 0 111 37.5t53 96.5l19 110h-444l10 54h926l-10 -54h-421l-20 -115q-10 -61 -50 -103z" />
    <glyph glyph-name="dvvR" unicode="&#x90b;" horiz-adv-x="1013" 
d="M619 686l-44 -252h188q85 0 102 72l9 51l4 22h56l-62 -354h-17q-45 0 -78.5 -19.5t-51.5 -51.5t-18 -70q0 -44 30 -65.5t78 -21.5q28 0 58 10l-9 -53q-34 -9 -66 -9q-69 0 -111.5 32.5t-42.5 94.5q0 15 3 33q11 64 58.5 107.5t117.5 52.5l25 144q-42 -27 -103 -27h-179
l-67 -382h-60l54 305l-350 -305h-79l1 5l439 369q2 64 -37.5 105t-109.5 41q-86 0 -148.5 -54t-78.5 -145h-64q13 76 53.5 133.5t100.5 89t130 31.5q67 0 110 -28t62 -79l38 218h-533l9 54h1071l-9 -54h-479z" />
    <glyph glyph-name="dvvL" unicode="&#x90c;" horiz-adv-x="899" 
d="M717 686l-25 -139q60 -10 93.5 -54.5t33.5 -113.5q0 -23 -5 -55q-9 -56 -34 -100h-7q-72 0 -113 -41t-41 -100q0 -44 30 -65.5t78 -21.5q27 0 59 10l-9 -53q-31 -9 -66 -9q-69 0 -112 32t-43 95q0 17 3 35q11 63 59 106.5t115 49.5q12 28 18 62q4 21 4 45q0 57 -28 90.5
t-84 33.5q-72 0 -120.5 -54.5t-60.5 -145.5l-2 -15h-55l3 15q4 28 4 59q0 141 -107 141q-70 0 -116.5 -47t-59.5 -123q-5 -28 -5 -48q0 -63 36.5 -100t107.5 -37q7 0 31 2l-10 -57q-28 -2 -35 -2q-96 0 -145.5 50t-49.5 136q0 24 5 57q18 104 83 165t158 61
q73 0 107.5 -45.5t36.5 -108.5h3q24 59 68 101.5t111 50.5l24 138h-631l10 54h957l-10 -54h-264z" />
    <glyph glyph-name="dvEcandra" unicode="&#x90d;" horiz-adv-x="652" 
d="M262 881.5q-42 38.5 -42 97.5q0 16 3 31h55q-2 -14 -2 -20q0 -41 30 -69.5t90 -28.5q68 0 109.5 35.5t49.5 82.5h55q-7 -44 -35 -82t-76 -61.5t-112 -23.5q-83 0 -125 38.5zM711 686h-118l-22 -125q-19 -104 -66 -153t-134 -49q-10 0 -34 2l10 58q7 -1 21 -1q61 0 94 34
t47 110l21 124h-329l-73 -413q-5 -24 -5 -53q0 -69 39 -107.5t112 -38.5q78 0 126 45.5t62 128.5h63q-18 -109 -84.5 -169t-172.5 -60q-103 0 -156 51.5t-53 142.5q0 29 6 62l73 411h-137l10 54h710z" />
    <glyph glyph-name="dvE" unicode="&#x90f;" horiz-adv-x="651" 
d="M735 686h-118l-22 -125q-19 -104 -66 -153t-134 -49q-10 0 -34 2l10 58q7 -1 21 -1q61 0 94 34t47 110l21 124h-329l-73 -413q-5 -24 -5 -53q0 -69 39 -107.5t112 -38.5q78 0 126 45.5t62 128.5h63q-18 -109 -84.5 -169t-172.5 -60q-103 0 -156 51.5t-53 142.5q0 29 6 62
l73 411h-137l10 54h710z" />
    <glyph glyph-name="dvAI" unicode="&#x910;" horiz-adv-x="651" 
d="M735 686h-118l-22 -125q-19 -104 -66 -153t-134 -49q-10 0 -34 2l10 58q7 -1 21 -1q61 0 94 34t47 110l21 124h-329l-73 -413q-5 -24 -5 -53q0 -69 39 -107.5t112 -38.5q78 0 126 45.5t62 128.5h63q-18 -109 -84.5 -169t-172.5 -60q-103 0 -156 51.5t-53 142.5q0 29 6 62
l73 411h-137l10 54h527q-39 85 -68 123t-59.5 49t-85.5 11h-39l9 53h38q70 0 109 -14t75 -63.5t82 -158.5h122z" />
    <glyph glyph-name="dvOcandra" unicode="&#x911;" horiz-adv-x="1110" 
d="M917 740l-8 -54h-141l-121 -686h-64l61 344l-181 1q14 -31 14 -67q0 -17 -3 -35q-15 -86 -79.5 -138.5t-155.5 -52.5q-85 0 -136 44.5t-51 117.5q0 11 4 39h60q-2 -10 -2 -28q0 -53 35.5 -85.5t95.5 -32.5q66 0 113 39.5t58 102.5q3 14 3 28q0 39 -22 68h-2v3
q-33 41 -107 41h-38l10 52h37q46 0 81 17.5t56 45.5t26 59q3 15 3 27q0 49 -32.5 76.5t-84.5 27.5q-62 0 -110 -34.5t-57 -91.5h-59q15 83 80.5 132t154.5 49q76 0 122 -38.5t46 -104.5q0 -16 -3 -33q-11 -59 -50.5 -100.5t-103.5 -55.5v-1q29 -5 50 -18h238l60 342h203z
M990 686h-141l10 54h345l-10 -54h-140l-120 -686h-64zM853 882.5q-44 39.5 -44 99.5q0 13 3 28h56q-2 -14 -2 -20q0 -41 29.5 -69.5t89.5 -28.5q68 0 110 35.5t50 82.5h55q-12 -70 -67.5 -118.5t-150.5 -48.5q-85 0 -129 39.5z" />
    <glyph glyph-name="dvO" unicode="&#x913;" horiz-adv-x="1110" 
d="M917 740l-8 -54h-141l-121 -686h-64l61 344l-181 1q14 -31 14 -67q0 -17 -3 -35q-15 -86 -79.5 -138.5t-155.5 -52.5q-85 0 -136 44.5t-51 117.5q0 11 4 39h60q-2 -10 -2 -28q0 -53 35.5 -85.5t95.5 -32.5q66 0 113 39.5t58 102.5q3 14 3 28q0 39 -22 68h-2v3
q-33 41 -107 41h-38l10 52h37q46 0 81 17.5t56 45.5t26 59q3 15 3 27q0 49 -32.5 76.5t-84.5 27.5q-62 0 -110 -34.5t-57 -91.5h-59q15 83 80.5 132t154.5 49q76 0 122 -38.5t46 -104.5q0 -16 -3 -33q-11 -59 -50.5 -100.5t-103.5 -55.5v-1q29 -5 50 -18h238l60 342h203z
M990 686h-141l10 54h345l-10 -54h-140l-120 -686h-64zM994 862.5q-29 38.5 -59 49.5t-86 11h-39l9 53h38q71 0 109.5 -14t74.5 -64t83 -161h-61q-40 87 -69 125.5z" />
    <glyph glyph-name="dvAU" unicode="&#x914;" horiz-adv-x="1110" 
d="M917 740l-8 -54h-141l-121 -686h-64l61 344l-181 1q14 -31 14 -67q0 -17 -3 -35q-15 -86 -79.5 -138.5t-155.5 -52.5q-85 0 -136 44.5t-51 117.5q0 11 4 39h60q-2 -10 -2 -28q0 -53 35.5 -85.5t95.5 -32.5q66 0 113 39.5t58 102.5q3 14 3 28q0 39 -22 68h-2v3
q-33 41 -107 41h-38l10 52h37q46 0 81 17.5t56 45.5t26 59q3 15 3 27q0 49 -32.5 76.5t-84.5 27.5q-62 0 -110 -34.5t-57 -91.5h-59q15 83 80.5 132t154.5 49q76 0 122 -38.5t46 -104.5q0 -16 -3 -33q-11 -59 -50.5 -100.5t-103.5 -55.5v-1q29 -5 50 -18h238l60 342h203z
M990 686h-141l10 54h345l-10 -54h-140l-120 -686h-64zM972 1017q36 -16 70.5 -77t82.5 -203h-56q-51 50 -83.5 71.5t-63.5 27t-91 5.5h-39l8 44h38q58 0 88.5 -5t61.5 -23.5t74 -61.5q-34 91 -62.5 132t-58.5 52t-82 11h-40l7 43h39q71 0 107 -16z" />
    <glyph glyph-name="dvKA" unicode="&#x915;" horiz-adv-x="1002" 
d="M593 686l-41 -233q31 51 80.5 82t116.5 31q79 0 128.5 -49t49.5 -129q0 -22 -5 -50q-13 -72 -48.5 -123.5t-87.5 -78.5t-113 -27q-32 0 -60 7l9 52q16 -5 46 -5q69 0 122.5 47.5t67.5 128.5q3 20 3 37q0 62 -37.5 98.5t-97.5 36.5q-77 0 -127 -49t-66 -118l-61 -344h-61
l38 218q-31 -51 -83 -81.5t-120 -30.5q-81 0 -131.5 49t-50.5 133q0 22 5 52q12 68 49 119.5t90.5 79t115.5 27.5q70 0 111.5 -31t55.5 -82l41 233h-506l10 54h1060l-9 -54h-494zM472 348q1 8 1 24q0 59 -34.5 99t-106.5 40q-46 0 -88 -21t-72 -60t-39 -91q-3 -21 -3 -39
q0 -65 38.5 -102t102.5 -37q56 0 97.5 25.5t66.5 63.5t34 79z" />
    <glyph glyph-name="dvKHA" unicode="&#x916;" horiz-adv-x="926" 
d="M1020 740l-9 -54h-141l-120 -686h-64l42 236q-28 -42 -73 -67.5t-103 -25.5q-23 0 -39 4q-40 -66 -104.5 -107.5t-144.5 -41.5q-96 0 -150 48t-54 135q0 22 5 54l28 162h38q145 0 172 156l23 133h-299l9 54h984zM807 686h-417l-24 -140q-19 -106 -76 -151.5t-138 -45.5
h-4l-21 -120q-4 -28 -4 -39q0 -63 40 -99.5t113 -36.5q60 0 108.5 31.5t79.5 80.5q-36 21 -56 58.5t-20 87.5q0 23 4 43q10 59 42.5 103.5t80 68.5t102.5 24q61 0 98.5 -26t51.5 -68zM659 217q37 23 59.5 58t28.5 72q3 15 3 31q0 52 -31.5 87.5t-96.5 35.5q-64 0 -113 -41
t-61 -110q-3 -18 -3 -35q0 -57 35.5 -89t92.5 -32q49 0 86 23z" />
    <glyph glyph-name="dvGA" unicode="&#x917;" horiz-adv-x="727" 
d="M821 740l-10 -54h-140l-121 -686h-63l120 686h-191l-50 -282q-13 -73 -57.5 -119t-121.5 -46q-65 0 -99.5 35t-34.5 92q0 16 3 34q4 20 7 31h62l-6 -32q-3 -13 -3 -28q0 -34 18 -55.5t57 -21.5q50 0 76 31t35 77l50 284h-326l10 54h785z" />
    <glyph glyph-name="dvGHA" unicode="&#x918;" horiz-adv-x="714" 
d="M798 686h-140l-121 -686h-64l41 235q-40 -59 -105 -92.5t-142 -33.5q-88 0 -142.5 39t-54.5 110q0 16 3 34q11 64 59 105t109 49v2q-45 7 -72 35t-27 79q0 21 4 40l16 84h-136l10 54h772zM594 686h-369l-15 -81q-3 -18 -3 -34q0 -48 31 -72.5t98 -24.5h49l-9 -53h-54
q-92 0 -139 -43t-47 -108q0 -53 42 -80.5t111 -27.5q57 0 108.5 23.5t88 66.5t49.5 98z" />
    <glyph glyph-name="dvNGA" unicode="&#x919;" horiz-adv-x="650" 
d="M744 740l-10 -54h-212l-23 -133l-4 -19v-2l-5 -26h-174q-57 0 -100 -20.5t-52 -73.5q-2 -14 -2 -18q0 -38 29.5 -56t75.5 -18h45q76 0 127 -33t51 -101q0 -17 -3 -35q-13 -74 -73.5 -119t-160.5 -45t-156.5 45t-56.5 117q0 16 3 31h64q-2 -9 -2 -26q0 -53 39 -85t114 -32
q70 0 114.5 33t53.5 83q2 9 2 26q0 51 -38 72.5t-97 21.5h-41q-64 0 -109 28t-45 86q0 13 3 28q12 73 69.5 105.5t133.5 32.5h133l23 133h-432l9 54h707zM622.5 433q10.5 -10 10.5 -25q0 -21 -16 -36t-36 -15q-17 0 -27 9.5t-10 24.5q0 21 15.5 36.5t36.5 15.5
q16 0 26.5 -10z" />
    <glyph glyph-name="dvCA" unicode="&#x91a;" horiz-adv-x="730" 
d="M814 686h-140l-121 -686h-64l39 218q-37 -52 -94.5 -83t-122.5 -31q-80 0 -131 44t-51 120q0 18 3 39q10 58 45 103t88 70h-196l9 52h361l-9 -52h-33q-79 0 -134.5 -46.5t-68.5 -117.5q-3 -16 -3 -31q0 -60 41 -93.5t104 -33.5q51 0 95 24t74.5 64t42.5 88l63 352h-585
l10 54h788z" />
    <glyph glyph-name="dvCHA" unicode="&#x91b;" horiz-adv-x="813" 
d="M671 686l-23 -134q53 -9 85.5 -48t32.5 -105q0 -21 -5 -53q-17 -97 -76.5 -169t-150.5 -110t-200 -38q-83 0 -147.5 22t-100.5 64t-36 100q0 18 3 36q13 70 61.5 112.5t114.5 52.5v2q-45 7 -71.5 34.5t-26.5 79.5q0 20 4 40l20 114h-130l9 54h873l-9 -54h-227zM611 686
h-392l-20 -112q-3 -19 -3 -35q0 -47 30 -71t95 -24h23l-9 -53h-22q-63 0 -108 -23t-67.5 -60.5t-22.5 -82.5q0 -68 62.5 -104.5t166.5 -36.5q91 0 167.5 32t127.5 91.5t65 140.5q4 20 4 42q0 56 -28.5 85.5t-70.5 29.5q-46 0 -86.5 -31t-52.5 -94q-3 -21 -3 -42q0 -30 4 -55
h-55q-4 34 -4 51q0 24 5 51q13 76 60.5 117.5t110.5 49.5z" />
    <glyph glyph-name="dvJA" unicode="&#x91c;" horiz-adv-x="835" 
d="M920 686h-141l-120 -686h-64l79 447h-210l-20 -112q-15 -88 -73.5 -142t-145.5 -54q-71 1 -112 43t-41 111q0 24 4 44l29 165h64l-29 -166q-3 -19 -3 -36q0 -48 25.5 -76t71.5 -28q57 0 97 38.5t51 101.5l30 166h272l32 184h-690l10 54h893z" />
    <glyph glyph-name="dvJHA" unicode="&#x91d;" horiz-adv-x="851" 
d="M935 686h-140l-121 -686h-63l48 271l-212 1q44 -33 44 -94q0 -15 -3 -32q-12 -66 -63.5 -108.5t-136.5 -42.5q-74 0 -114 31.5t-51 62.5l-29 -165h-61l44 248h57q-2 -55 35 -91.5t112 -36.5q74 0 112.5 39t38.5 95q0 45 -35 70t-100 25h-50q-64 2 -105.5 30.5t-41.5 83.5
q0 14 3 29q12 73 70.5 105.5t136.5 32.5h131l23 132h-430l9 54h902zM732 686h-206l-23 -132l-2 -9l-2 -13l-5 -26h-174q-56 0 -100.5 -20.5t-53.5 -73.5q-2 -14 -2 -18q0 -38 30 -56t77 -18h45h351z" />
    <glyph glyph-name="dvNYA" unicode="&#x91e;" horiz-adv-x="803" 
d="M887 686h-139l-121 -686h-64l54 309h-112q-24 -91 -92.5 -150.5t-167.5 -59.5q-63 0 -105.5 23.5t-63 61.5t-20.5 83h61q4 -47 38 -80t99 -33q79 0 131 51.5t66 128.5q4 28 4 40q0 61 -35 99.5t-103 38.5q-66 0 -112 -34t-65 -80h-61q24 72 88.5 120.5t159.5 48.5
q92 0 140 -51t48 -132l-1 -20h113l57 322h-658l10 54h861z" />
    <glyph glyph-name="dvTTA" unicode="&#x91f;" horiz-adv-x="648" 
d="M212.5 452.5q-73.5 -52.5 -91.5 -152.5q-4 -26 -4 -38q0 -70 48 -113.5t127 -43.5q91 0 154.5 56.5t78.5 146.5h62q-13 -77 -54.5 -135.5t-105 -91t-142.5 -32.5q-67 0 -119.5 26t-82 72.5t-29.5 107.5q0 26 4 47q22 126 112.5 192t221.5 66h32l22 126h-423l9 54h710
l-10 -54h-223l-32 -181h-91q-100 0 -173.5 -52.5z" />
    <glyph glyph-name="dvTTHA" unicode="&#x920;" horiz-adv-x="673" 
d="M421 686l-25 -135q86 -9 140 -65t54 -142q0 -26 -4 -47q-13 -73 -57 -128.5t-109 -86t-140 -30.5q-65 0 -116 26t-80 73t-29 109q0 26 4 47q12 69 51.5 122.5t97.5 85t125 37.5l25 134h-336l10 54h735l-10 -54h-336zM526 339q0 71 -46 115t-123 44q-56 0 -106.5 -24.5
t-84.5 -68.5t-44 -100q-3 -19 -3 -38q0 -71 46 -116t122 -45q56 0 106.5 24.5t84.5 68.5t44 100q4 19 4 40z" />
    <glyph glyph-name="dvDDA" unicode="&#x921;" horiz-adv-x="578" 
d="M216 485.5q-43 -20.5 -52 -73.5q-2 -14 -2 -18q0 -38 29.5 -56t75.5 -18h45q76 0 127 -33t51 -101q0 -17 -3 -35q-13 -74 -73.5 -119t-160.5 -45t-156.5 45t-56.5 117q0 16 3 31h64q-2 -9 -2 -26q0 -53 39 -85t114 -32q70 0 114.5 33t53.5 83q2 9 2 26q0 51 -38 72.5
t-97 21.5h-41q-64 0 -109 28t-45 86q0 13 3 28q12 73 69.5 105.5t133.5 32.5h127l23 133h-426l9 54h635l-10 -54h-146l-32 -180h-168q-57 0 -100 -20.5z" />
    <glyph glyph-name="dvDDHA" unicode="&#x922;" horiz-adv-x="636" 
d="M279 490q-61 -26 -103 -78t-55 -127q-4 -21 -4 -45q0 -81 53.5 -130t144.5 -49q78 0 135 40.5t68 104.5q2 16 2 24q0 40 -25.5 65.5t-67.5 25.5q-44 0 -77.5 -27t-40.5 -71q-2 -7 -2 -21h-49q0 16 3 28q11 64 59.5 101t116.5 37q63 0 101.5 -37t38.5 -96q0 -14 -3 -31
q-10 -56 -46 -99.5t-93 -67.5t-127 -24q-74 0 -131.5 28t-89.5 79t-32 119q0 27 4 50q16 90 65.5 151.5t122 91.5t156.5 30h45l22 124h-445l10 54h695l-10 -54h-190l-29 -170h-90q-71 0 -132 -26z" />
    <glyph glyph-name="dvNNA" unicode="&#x923;" horiz-adv-x="845" 
d="M930 686h-141l-120 -686h-64l121 686h-212l-52 -298q-16 -87 -71 -140.5t-139 -53.5q-74 0 -116.5 41t-42.5 110q0 23 4 43l53 298h-124l10 54h903zM452 686h-240l-53 -304q-3 -16 -3 -32q0 -46 26 -74t73 -28q56 0 94 37t49 97z" />
    <glyph glyph-name="dvTA" unicode="&#x924;" horiz-adv-x="690" 
d="M774 686h-140l-121 -686h-63l78 444h-152q-105 0 -173 -49t-86 -146q-4 -21 -4 -46q0 -72 44 -110.5t130 -38.5h22l-9 -52h-26q-103 0 -164.5 51t-61.5 146q0 21 5 53q22 125 109.5 186t219.5 61h156l32 187h-544l10 54h748z" />
    <glyph glyph-name="dvTHA" unicode="&#x925;" horiz-adv-x="758" 
d="M852 740l-9 -54h-141l-121 -686h-64l43 239q-18 -33 -53 -64t-85 -51t-108 -20q-109 0 -172 56.5t-63 154.5q0 28 6 58q3 21 11 47h101q91 0 157 33.5t81 117.5q2 9 2 26q0 43 -26 70t-74 27q-70 0 -110.5 -49t-40.5 -125h-58q1 65 27.5 117t75.5 82t114 30
q71 0 112.5 -39t41.5 -104q0 -11 -4 -37q-18 -100 -95 -148.5t-190 -48.5q-47 0 -63 1q-6 -27 -6 -52q0 -76 49.5 -119.5t139.5 -43.5q59 0 112.5 26t91 74t48.5 110l65 372h205z" />
    <glyph glyph-name="dvDA" unicode="&#x926;" horiz-adv-x="610" 
d="M216 467.5q-66 -45.5 -82 -132.5q-3 -19 -3 -37q0 -63 39 -100.5t106 -37.5q38 0 76.5 16t68 49.5t37.5 82.5h58l-55 -319h-63l36 206q-27 -40 -75.5 -63.5t-105.5 -23.5q-84 0 -136 49t-52 133q0 21 5 49q20 114 105 172t201 58h81l22 117h-452l10 54h667l-10 -54h-151
l-31 -173h-140q-90 0 -156 -45.5z" />
    <glyph glyph-name="dvDHA" unicode="&#x927;" horiz-adv-x="708" 
d="M793 686h-139l-121 -686h-64l41 235q-39 -61 -105.5 -96.5t-145.5 -35.5q-81 0 -134 38.5t-53 105.5q0 15 3 31q12 63 55 99.5t95 43.5v3q-45 10 -74.5 43t-29.5 87q0 17 3 35q12 71 65 115.5t127 44.5q66 0 103 -33.5t37 -92.5q0 -28 -9 -61h-50q7 22 7 45
q0 41 -24.5 64.5t-69.5 23.5q-37 0 -67.5 -19.5t-48.5 -52t-18 -70.5q0 -49 34 -76t98 -27h63l-9 -52h-54q-80 0 -124.5 -38.5t-44.5 -97.5q0 -51 39.5 -78t103.5 -27q58 0 110.5 25.5t89.5 71t50 103.5l60 342l7 41h203z" />
    <glyph glyph-name="dvNA" unicode="&#x928;" horiz-adv-x="781" 
d="M865 686h-139l-122 -686h-63l80 453h-219q21 -18 33 -45t12 -61q0 -16 -3 -36q-9 -54 -41 -95t-78.5 -63.5t-99.5 -22.5q-77 0 -124 43t-47 112q0 17 3 35q16 87 80.5 136.5t156.5 49.5h336l32 180h-636l10 54h839zM363 422.5q-32 29.5 -84 29.5q-62 0 -107.5 -37.5
t-55.5 -97.5q-2 -9 -2 -26q0 -48 32 -77t86 -29q44 0 81.5 22t59.5 59t22 80q0 47 -32 76.5z" />
    <glyph glyph-name="dvPA" unicode="&#x92a;" horiz-adv-x="649" 
d="M733 686h-140l-120 -686h-64l52 298q-31 -43 -77.5 -67t-105.5 -24q-87 0 -134 48.5t-47 134.5q0 29 6 62l42 234h-119l10 54h707zM529 686h-320l-42 -234q-5 -32 -5 -52q0 -66 34.5 -102t101.5 -36q73 0 122.5 46t62.5 116z" />
    <glyph glyph-name="dvPHA" unicode="&#x92b;" horiz-adv-x="986" 
d="M574 686l-41 -234q31 52 83 83t121 31q79 0 126.5 -47.5t47.5 -128.5q0 -26 -4 -49q-13 -72 -49.5 -124.5t-89 -80t-112.5 -27.5q-35 0 -61 8l9 51q21 -6 48 -6q70 0 122.5 47.5t67.5 129.5q3 20 3 36q0 63 -37.5 99.5t-97.5 36.5q-56 0 -98 -26.5t-67 -68t-34 -87.5
l-57 -329h-64l52 299q-30 -44 -75 -68t-101 -24q-83 0 -126 46t-43 129q0 31 6 67l42 237h-119l10 54h1044l-10 -54h-496zM510 686h-301l-42 -237q-6 -31 -6 -58q0 -62 31.5 -95.5t95.5 -33.5q67 0 113 42.5t61 108.5z" />
    <glyph glyph-name="dvBA" unicode="&#x92c;" horiz-adv-x="689" 
d="M783 740l-9 -54h-141l-120 -686h-62l39 219q-32 -53 -88.5 -86t-130.5 -33q-59 0 -106 23.5t-73.5 67t-26.5 101.5q0 26 4 47q13 72 53 125.5t99 82.5t127 29q74 0 120.5 -33.5t62.5 -86.5l40 230h-545l10 54h747zM516 375q0 66 -41 111.5t-121 45.5q-39 0 -76 -13
t-67 -37l243 -261q24 26 39 56.5t20 60.5q3 18 3 37zM123 299q0 -71 46.5 -111t119.5 -40q81 0 141 50l-244 261q-47 -50 -60 -122q-3 -19 -3 -38z" />
    <glyph glyph-name="dvBHA" unicode="&#x92d;" horiz-adv-x="779" 
d="M873 740l-9 -54h-141l-121 -686h-64l70 398h-174l-15 -85q-17 -98 -70 -150t-135 -52q-70 0 -111 37t-41 99q0 16 3 34q15 79 74.5 125t140.5 46h103l17 99q5 30 5 50q0 92 -82 92q-45 0 -78 -30.5t-43 -84.5q-3 -18 -3 -40h-63q-1 20 2 42q14 77 65 123t126 46
q69 0 102.5 -37.5t33.5 -105.5q0 -29 -6 -64l-16 -90h174l51 288h205zM373 398h-100q-56 0 -97 -31.5t-51 -84.5q-2 -16 -2 -24q0 -42 26.5 -67t70.5 -25q53 0 89.5 38t48.5 106z" />
    <glyph glyph-name="dvMA" unicode="&#x92e;" horiz-adv-x="771" 
d="M855 686h-140l-121 -686h-64l70 398h-197l-15 -85q-17 -98 -70 -150t-135 -52q-69 0 -110 37t-41 99q0 16 3 34q13 79 72.5 125t141.5 46h103l41 234h-367l10 54h829zM651 686h-197l-41 -234h196zM342 398h-101q-63 0 -105.5 -38.5t-42.5 -102.5q0 -42 26.5 -66.5
t70.5 -24.5q53 0 89 38t48 106z" />
    <glyph glyph-name="dvYA" unicode="&#x92f;" horiz-adv-x="732" 
d="M817 686h-141l-120 -686h-64l41 234q-36 -51 -96 -83t-137 -32q-106 0 -167 58.5t-61 159.5q0 30 6 64q8 36 10 44h16q89 0 144.5 37.5t72.5 128.5l13 75h-308l10 54h790zM612 686h-215l-15 -84q-17 -99 -78.5 -146t-161.5 -49q-2 -8 -2 -11q-5 -24 -5 -54
q0 -79 48.5 -123.5t134.5 -44.5q56 0 106 23.5t84.5 66t46.5 97.5z" />
    <glyph glyph-name="dvRA" unicode="&#x930;" horiz-adv-x="537" 
d="M622 686h-129l-18 -106q-20 -113 -87 -172t-177 -59h-63l-25 -146q-5 -25 -5 -43q0 -52 28.5 -83t82.5 -31q58 0 97 39t51 106l2 16h62l-2 -14q-16 -94 -72 -148t-142 -54q-80 0 -125 44.5t-45 118.5q0 30 5 52l34 196h107q88 0 141 44.5t69 133.5l19 106h-403l10 54h594
z" />
    <glyph glyph-name="dvRxA" unicode="&#x931;" horiz-adv-x="537" 
d="M622 686h-129l-18 -106q-20 -113 -87 -172t-177 -59h-63l-25 -146q-5 -25 -5 -43q0 -52 28.5 -83t82.5 -31q58 0 97 39t51 106l2 16h62l-2 -14q-16 -94 -72 -148t-142 -54q-80 0 -125 44.5t-45 118.5q0 30 5 52l34 196h107q88 0 141 44.5t69 133.5l19 106h-403l10 54h594
zM5.5 -135q-11.5 11 -11.5 28q0 22 17 38t39 16q17 0 28 -10.5t11 -27.5q0 -22 -16.5 -38.5t-38.5 -16.5q-17 0 -28.5 11z" />
    <glyph glyph-name="dvLA" unicode="&#x932;" horiz-adv-x="895" 
d="M718 686l-24 -142q58 -11 90.5 -56.5t32.5 -114.5q0 -22 -5 -54q-19 -107 -89.5 -173.5t-181.5 -66.5q-13 0 -39 2l11 57q18 -2 29 -2q83 0 136.5 51t68.5 134q4 20 4 44q0 57 -28.5 91.5t-84.5 34.5q-71 0 -118 -54t-63 -146l-2 -13h-55l2 13q7 42 7 67q0 63 -28 98
t-84 35q-70 0 -115.5 -47t-58.5 -123q-4 -20 -4 -44q0 -65 37 -103t108 -38q9 0 29 2l-10 -57q-22 -2 -30 -2q-96 0 -147.5 51.5t-51.5 136.5q0 27 6 57q18 104 81.5 164t155.5 60q75 0 111 -45t39 -108h2q24 59 69 102t113 50l25 139h-636l9 54h960l-10 -54h-261z" />
    <glyph glyph-name="dvLLA" unicode="&#x933;" horiz-adv-x="998" 
d="M797 686l-24 -132q67 -12 107 -59t40 -119q0 -24 -4 -47q-11 -65 -48.5 -116t-93 -79t-118.5 -28q-77 0 -125.5 41.5t-55.5 104.5h-3q-28 -63 -89.5 -104.5t-138.5 -41.5q-85 0 -137.5 49t-52.5 130q0 24 4 44q12 68 49.5 120t93 80t117.5 28q79 0 125 -40t58 -104h2
q32 60 85 99t124 44l23 130h-717l9 54h1065l-9 -54h-286zM458 367q0 61 -37 98t-102 37q-74 0 -130 -47.5t-69 -125.5q-3 -16 -3 -33q0 -61 39 -97.5t103 -36.5q74 0 128 47t68 120q3 20 3 38zM857 365q0 63 -38.5 100t-101.5 37q-75 0 -129.5 -48t-68.5 -125q-3 -18 -3 -34
q0 -60 37.5 -96.5t102.5 -36.5q73 0 129 46.5t69 120.5q3 20 3 36z" />
    <glyph glyph-name="dvVA" unicode="&#x935;" horiz-adv-x="676" 
d="M770 740l-9 -54h-141l-120 -686h-63l38 218q-33 -52 -88 -83t-125 -31q-89 0 -143 50t-54 137q0 21 5 53q12 69 50.5 120t94 78.5t120.5 27.5q73 0 119 -30.5t64 -81.5l40 228h-532l10 54h734zM388.5 184q45.5 27 72.5 68t35 84q3 18 3 37q0 61 -38 103t-116 42
q-50 0 -95.5 -22t-77 -62.5t-40.5 -94.5q-4 -28 -4 -39q0 -67 42 -105t112 -38q61 0 106.5 27z" />
    <glyph glyph-name="dvSHA" unicode="&#x936;" horiz-adv-x="803" 
d="M492 705q48 -44 48 -120q0 -25 -4 -46q-19 -103 -95.5 -156.5t-184.5 -53.5h-103l-21 -120q-4 -21 -4 -44q0 -55 29 -86.5t86 -31.5q63 0 106 43.5t55 117.5h62q-14 -98 -72 -157t-154 -59q-86 0 -131.5 44.5t-45.5 121.5q0 22 5 54l30 171h148q86 0 149.5 42t77.5 120
q3 18 3 33q0 53 -32 84t-84 31q-50 0 -88.5 -25.5t-59 -69t-20.5 -98.5h-63q2 73 32.5 129.5t83.5 88t121 31.5q78 0 126 -44zM897 740l-9 -54h-141l-120 -686h-65l130 740h205z" />
    <glyph glyph-name="dvSSA" unicode="&#x937;" horiz-adv-x="654" 
d="M738 686h-140l-121 -686h-63l52 297q-31 -44 -78.5 -69t-107.5 -25q-85 0 -134 50.5t-49 138.5q0 29 6 60l42 234h-119l10 54h712zM535 686h-328l279 -274l3 15zM401 287.5q44 29.5 68 78.5l-272 268l-32 -183q-5 -28 -5 -49q0 -68 37 -106t103 -38q57 0 101 29.5z" />
    <glyph glyph-name="dvSA" unicode="&#x938;" horiz-adv-x="817" 
d="M901 686h-141l-120 -686h-63l64 363h-491l-28 -160q-4 -19 -4 -41q0 -54 28.5 -85t84.5 -31q61 0 100 43.5t49 112.5h62q-12 -94 -69 -152.5t-148 -58.5q-81 0 -125.5 46t-44.5 123q0 20 5 50l35 201h98q86 0 140.5 47.5t69.5 129.5l18 98h-394l9 54h875zM697 686h-213
l-18 -98q-11 -60 -39.5 -103t-66.5 -69h290z" />
    <glyph glyph-name="dvHA" unicode="&#x939;" horiz-adv-x="596" 
d="M690 740l-10 -54h-145l-22 -129l-9 -48h-186q-52 0 -89 -21t-45 -68q-2 -12 -2 -17q0 -28 18.5 -48t49.5 -29q29 6 59 6q64 0 107 -23.5t63 -60t20 -75.5h-61q-4 42 -38 74.5t-100 32.5q-51 0 -92.5 -22.5t-67.5 -60t-34 -81.5q-3 -18 -3 -35q0 -58 35.5 -93.5
t103.5 -35.5q63 0 109.5 32t65.5 74h62q-14 -42 -47 -78.5t-83 -59t-111 -22.5q-94 0 -146 50t-52 129q0 23 4 42q11 63 49.5 112.5t97.5 75.5q-31 15 -50.5 40.5t-19.5 61.5q0 6 2 22q12 63 62 94.5t123 31.5h143l23 129h-438l10 54h644z" />
    <glyph glyph-name="dvNukta" unicode="&#x93c;" horiz-adv-x="0" 
d="M-415.5 -107q-11.5 11 -11.5 28q0 22 17 38t39 16q17 0 28 -10.5t11 -27.5q0 -22 -16.5 -38.5t-38.5 -16.5q-17 0 -28.5 11z" />
    <glyph glyph-name="dvAvagraha" unicode="&#x93d;" horiz-adv-x="571" 
d="M37 120h240q46 0 71.5 24.5t25.5 59.5q0 33 -22.5 63.5t-68.5 76.5q-55 54 -84.5 96t-29.5 92q0 17 2 26q11 60 56 87t110 27h198l-10 -55h-181q-46 0 -78 -18t-32 -64q0 -34 23.5 -66t69.5 -77q54 -54 82.5 -95t28.5 -89q0 -60 -40 -101t-117 -41h-254z" />
    <glyph glyph-name="dvmAA" unicode="&#x93e;" 
d="M167 686h-141l10 54h345l-10 -54h-140l-120 -686h-64z" />
    <glyph glyph-name="dvmI" unicode="&#x93f;" 
d="M762.5 965q75.5 -22 122 -68.5t46.5 -116.5q0 -11 -4 -39l-3 -17h-63l2 16q3 17 3 30q0 87 -83.5 125.5t-196.5 38.5q-130 0 -229.5 -42t-117.5 -152h142l-10 -54h-140l-121 -686h-64l121 686h-141l10 54h140q22 131 141 189t279 58q91 0 166.5 -22z" />
    <glyph glyph-name="dvmII" unicode="&#x940;" horiz-adv-x="286" 
d="M381 740l-9 -54h-141l-121 -686h-64l121 686h-140l9 54h142l8 43q5 28 5 49q0 45 -21.5 72.5t-69.5 27.5q-111 0 -141 -149l-11 -58h-62l11 56q16 93 68.5 149.5t144.5 56.5q75 0 109.5 -38.5t34.5 -105.5q0 -30 -6 -62l-8 -41h141z" />
    <glyph glyph-name="dvmU" unicode="&#x941;" horiz-adv-x="0" 
d="M-446.5 -250q-54.5 39 -54.5 114q0 23 6 50h57q-5 -25 -5 -41q0 -55 38.5 -83t102.5 -28t106.5 29.5t51.5 83.5q2 14 2 19q0 35 -21 57.5t-61 22.5h-21l9 51h21q61 0 95.5 -35.5t34.5 -89.5q0 -9 -2 -27q-13 -76 -72 -119t-149 -43q-84 0 -138.5 39z" />
    <glyph glyph-name="dvmUU" unicode="&#x942;" horiz-adv-x="0" 
d="M-375.5 -250.5q-41.5 32.5 -41.5 89.5q0 13 3 28q12 73 67.5 114.5t137.5 41.5q94 0 148.5 -55t54.5 -148q0 -34 -7 -68q-1 -7 -3 -15.5t-3 -12.5h-53l7 35q5 24 5 54q0 75 -41.5 118t-111.5 43q-59 0 -100 -30t-48 -79q-2 -14 -2 -20q0 -36 27 -57.5t69 -21.5q21 0 32 2
l-9 -49q-20 -2 -31 -2q-59 0 -100.5 32.5z" />
    <glyph glyph-name="dvmvR" unicode="&#x943;" horiz-adv-x="0" 
d="M-333 -286.5q-36 16.5 -58 48.5t-22 76q0 14 3 31q12 70 68 112.5t142 42.5h27l-8 -47h-22q-67 0 -107 -36t-40 -93q0 -46 32.5 -72.5t79.5 -26.5q36 0 73 11l-9 -51q-38 -12 -82 -12q-41 0 -77 16.5z" />
    <glyph glyph-name="dvmvRR" unicode="&#x944;" horiz-adv-x="0" 
d="M-391.5 -411q-40.5 27 -40.5 78q0 16 2 24q9 43 38.5 70.5t69.5 36.5v2q-33 8 -52 29.5t-19 54.5q0 6 2 22q11 60 58 89t104 29h56l-6 -39h-36q-43 0 -74.5 -19.5t-39.5 -61.5q-2 -12 -2 -17q0 -32 25.5 -47.5t66.5 -15.5h44l-8 -49h-46q-45 0 -78 -18.5t-40 -59.5
q-2 -12 -2 -16q0 -33 27.5 -50.5t69.5 -17.5q26 0 54 5t45 11l-9 -50q-20 -7 -49.5 -12t-57.5 -5q-62 0 -102.5 27z" />
    <glyph glyph-name="dvmEcandra" unicode="&#x945;" horiz-adv-x="0" 
d="M-189 859.5q-44 39.5 -44 99.5q0 13 3 28h56q-2 -14 -2 -20q0 -41 29.5 -69.5t89.5 -28.5q68 0 110 35.5t50 82.5h55q-12 -70 -67.5 -118.5t-150.5 -48.5q-85 0 -129 39.5z" />
    <glyph glyph-name="dvmE" unicode="&#x947;" horiz-adv-x="0" 
d="M-177 862.5q-29 38.5 -59 49.5t-86 11h-39l9 53h38q71 0 109.5 -14t74.5 -64t83 -161h-61q-40 87 -69 125.5z" />
    <glyph glyph-name="dvmAI" unicode="&#x948;" horiz-adv-x="0" 
d="M-202 1017q36 -16 70.5 -77t82.5 -203h-56q-51 50 -83.5 71.5t-63.5 27t-91 5.5h-39l8 44h38q58 0 88.5 -5t61.5 -23.5t74 -61.5q-34 91 -62.5 132t-58.5 52t-82 11h-40l7 43h39q71 0 107 -16z" />
    <glyph glyph-name="dvmOcandra" unicode="&#x949;" horiz-adv-x="288" 
d="M99 859.5q-44 39.5 -44 99.5q0 13 3 28h56q-2 -14 -2 -20q0 -41 29.5 -69.5t89.5 -28.5q68 0 110 35.5t50 82.5h55q-12 -70 -67.5 -118.5t-150.5 -48.5q-85 0 -129 39.5zM167 686h-141l10 54h345l-10 -54h-140l-120 -686h-64z" />
    <glyph glyph-name="dvmO" unicode="&#x94b;" 
d="M381 740l-9 -54h-141l-121 -686h-64l121 686h-140l9 54h142q-39 85 -68 123t-59.5 49t-86.5 11h-38l9 53h38q70 0 109 -14t75 -63.5t82 -158.5h142z" />
    <glyph glyph-name="dvmAU" unicode="&#x94c;" 
d="M355 740l-9 -54h-141l-120 -686h-64l120 686h-140l9 54h145q-51 49 -83 69.5t-62.5 26t-90.5 5.5h-39l8 44h38q58 0 88.5 -5t61.5 -23.5t74 -61.5q-34 91 -62.5 132t-58 52t-82.5 11h-40l7 43h39q71 0 107 -16t70.5 -76.5t81.5 -200.5h143z" />
    <glyph glyph-name="dvVirama" unicode="&#x94d;" horiz-adv-x="0" 
d="M-248 -62h64l88 -193h-66z" />
    <glyph glyph-name="dvOm" unicode="&#x950;" horiz-adv-x="1052" 
d="M630.5 918.5q-8.5 8.5 -8.5 22.5q0 17 13 29.5t30 12.5q13 0 21.5 -8.5t8.5 -21.5q0 -18 -13 -30.5t-30 -12.5q-13 0 -21.5 8.5zM502.5 788.5q-45.5 39.5 -45.5 97.5q0 15 3 30h52q-2 -14 -2 -20q0 -41 32 -70t95 -29q68 0 108.5 35.5t49.5 83.5h52q-12 -71 -65.5 -119
t-147.5 -48q-86 0 -131.5 39.5zM960 526q0 -36 -8 -86l-25 -141q-24 -136 -95 -204t-203 -68q-38 0 -96 10l9 54q59 -9 87 -9q109 0 163 55.5t73 163.5l26 146q7 36 7 72q0 56 -24 85t-77 29q-64 0 -99.5 -38t-46.5 -100q-17 -93 -66 -133t-136 -40h-9q16 -31 16 -73
q0 -17 -3 -37q-17 -90 -82 -144.5t-156 -54.5q-84 0 -135 44t-51 117q0 21 4 40h60q-2 -10 -2 -28q0 -53 35.5 -85.5t94.5 -32.5q66 0 114 41.5t60 107.5q2 18 2 27q0 50 -31.5 83t-99.5 33h-37l9 55h38q68 0 111.5 39t52.5 91q3 15 3 29q0 51 -33.5 80t-85.5 29
q-60 0 -106 -34.5t-57 -92.5h-60q15 83 80 132.5t154 49.5q77 0 123 -39.5t46 -108.5q0 -18 -3 -36q-11 -62 -51 -106t-104 -57v-2q25 -5 43 -15h61q57 0 93 27.5t48 93.5q34 193 216 193q153 0 153 -162z" />
    <glyph glyph-name="dvKxA" unicode="&#x958;" horiz-adv-x="1002" 
d="M593 686l-41 -233q31 51 80.5 82t116.5 31q79 0 128.5 -49t49.5 -129q0 -22 -5 -50q-13 -72 -48.5 -123.5t-87.5 -78.5t-113 -27q-32 0 -60 7l9 52q16 -5 46 -5q69 0 122.5 47.5t67.5 128.5q3 20 3 37q0 62 -37.5 98.5t-97.5 36.5q-77 0 -127 -49t-66 -118l-61 -344h-61
l38 218q-31 -51 -83 -81.5t-120 -30.5q-81 0 -131.5 49t-50.5 133q0 22 5 52q12 68 49 119.5t90.5 79t115.5 27.5q70 0 111.5 -31t55.5 -82l41 233h-506l10 54h1060l-9 -54h-494zM472 348q1 8 1 24q0 59 -34.5 99t-106.5 40q-46 0 -88 -21t-72 -60t-39 -91q-3 -21 -3 -39
q0 -65 38.5 -102t102.5 -37q56 0 97.5 25.5t66.5 63.5t34 79zM171.5 -62q-11.5 11 -11.5 28q0 22 17 38t39 16q17 0 28 -10.5t11 -27.5q0 -22 -16.5 -38.5t-38.5 -16.5q-17 0 -28.5 11z" />
    <glyph glyph-name="dvKHxA" unicode="&#x959;" horiz-adv-x="926" 
d="M1020 740l-9 -54h-141l-120 -686h-64l42 236q-28 -42 -73 -67.5t-103 -25.5q-23 0 -39 4q-40 -66 -104.5 -107.5t-144.5 -41.5q-96 0 -150 48t-54 135q0 22 5 54l28 162h38q145 0 172 156l23 133h-299l9 54h984zM807 686h-417l-24 -140q-19 -106 -76 -151.5t-138 -45.5
h-4l-21 -120q-4 -28 -4 -39q0 -63 40 -99.5t113 -36.5q60 0 108.5 31.5t79.5 80.5q-36 21 -56 58.5t-20 87.5q0 23 4 43q10 59 42.5 103.5t80 68.5t102.5 24q61 0 98.5 -26t51.5 -68zM659 217q37 23 59.5 58t28.5 72q3 15 3 31q0 52 -31.5 87.5t-96.5 35.5q-64 0 -113 -41
t-61 -110q-3 -18 -3 -35q0 -57 35.5 -89t92.5 -32q49 0 86 23zM188.5 -169q-11.5 11 -11.5 28q0 22 17 38t39 16q17 0 28 -10.5t11 -27.5q0 -22 -16.5 -38.5t-38.5 -16.5q-17 0 -28.5 11z" />
    <glyph glyph-name="dvGxA" unicode="&#x95a;" horiz-adv-x="727" 
d="M821 740l-10 -54h-140l-121 -686h-63l120 686h-191l-50 -282q-13 -73 -57.5 -119t-121.5 -46q-65 0 -99.5 35t-34.5 92q0 16 3 34q4 20 7 31h62l-6 -32q-3 -13 -3 -28q0 -34 18 -55.5t57 -21.5q50 0 76 31t35 77l50 284h-326l10 54h785zM128.5 65q-11.5 11 -11.5 28
q0 22 17 38t39 16q17 0 28 -10.5t11 -27.5q0 -22 -16.5 -38.5t-38.5 -16.5q-17 0 -28.5 11z" />
    <glyph glyph-name="dvJxA" unicode="&#x95b;" horiz-adv-x="835" 
d="M920 686h-141l-120 -686h-64l79 447h-210l-20 -112q-15 -88 -73.5 -142t-145.5 -54q-71 1 -112 43t-41 111q0 24 4 44l29 165h64l-29 -166q-3 -19 -3 -36q0 -48 25.5 -76t71.5 -28q57 0 97 38.5t51 101.5l30 166h272l32 184h-690l10 54h893zM168.5 -28q-11.5 11 -11.5 28
q0 22 17 38t39 16q17 0 28 -10.5t11 -27.5q0 -22 -16.5 -38.5t-38.5 -16.5q-17 0 -28.5 11z" />
    <glyph glyph-name="dvDDxA" unicode="&#x95c;" horiz-adv-x="578" 
d="M216 485.5q-43 -20.5 -52 -73.5q-2 -14 -2 -18q0 -38 29.5 -56t75.5 -18h45q76 0 127 -33t51 -101q0 -17 -3 -35q-13 -74 -73.5 -119t-160.5 -45t-156.5 45t-56.5 117q0 16 3 31h64q-2 -9 -2 -26q0 -53 39 -85t114 -32q70 0 114.5 33t53.5 83q2 9 2 26q0 51 -38 72.5
t-97 21.5h-41q-64 0 -109 28t-45 86q0 13 3 28q12 73 69.5 105.5t133.5 32.5h127l23 133h-426l9 54h635l-10 -54h-146l-32 -180h-168q-57 0 -100 -20.5zM185.5 -181q-11.5 11 -11.5 28q0 22 17 38t39 16q17 0 28 -10.5t11 -27.5q0 -22 -16.5 -38.5t-38.5 -16.5
q-17 0 -28.5 11z" />
    <glyph glyph-name="dvDDHxA" unicode="&#x95d;" horiz-adv-x="636" 
d="M279 490q-61 -26 -103 -78t-55 -127q-4 -21 -4 -45q0 -81 53.5 -130t144.5 -49q78 0 135 40.5t68 104.5q2 16 2 24q0 40 -25.5 65.5t-67.5 25.5q-44 0 -77.5 -27t-40.5 -71q-2 -7 -2 -21h-49q0 16 3 28q11 64 59.5 101t116.5 37q63 0 101.5 -37t38.5 -96q0 -14 -3 -31
q-10 -56 -46 -99.5t-93 -67.5t-127 -24q-74 0 -131.5 28t-89.5 79t-32 119q0 27 4 50q16 90 65.5 151.5t122 91.5t156.5 30h45l22 124h-445l10 54h695l-10 -54h-190l-29 -170h-90q-71 0 -132 -26zM220.5 -155q-11.5 11 -11.5 28q0 22 17 38t39 16q17 0 28 -10.5t11 -27.5
q0 -22 -16.5 -38.5t-38.5 -16.5q-17 0 -28.5 11z" />
    <glyph glyph-name="dvPHxA" unicode="&#x95e;" horiz-adv-x="986" 
d="M574 686l-41 -234q31 52 83 83t121 31q79 0 126.5 -47.5t47.5 -128.5q0 -26 -4 -49q-13 -72 -49.5 -124.5t-89 -80t-112.5 -27.5q-35 0 -61 8l9 51q21 -6 48 -6q70 0 122.5 47.5t67.5 129.5q3 20 3 36q0 63 -37.5 99.5t-97.5 36.5q-56 0 -98 -26.5t-67 -68t-34 -87.5
l-57 -329h-64l52 299q-30 -44 -75 -68t-101 -24q-83 0 -126 46t-43 129q0 31 6 67l42 237h-119l10 54h1044l-10 -54h-496zM510 686h-301l-42 -237q-6 -31 -6 -58q0 -62 31.5 -95.5t95.5 -33.5q67 0 113 42.5t61 108.5zM180.5 41q-11.5 11 -11.5 28q0 22 17 38t39 16
q17 0 28 -10.5t11 -27.5q0 -22 -16.5 -38.5t-38.5 -16.5q-17 0 -28.5 11z" />
    <glyph glyph-name="dvvRR" unicode="&#x960;" horiz-adv-x="1014" 
d="M619 686l-44 -252h187q85 0 103 70l8 44l1 9l4 22h56l-62 -355h-42q-42 0 -74 -19.5t-40 -61.5q-1 -6 -1 -16q0 -33 25 -48.5t67 -15.5h44l-9 -49h-46q-44 0 -76.5 -19t-40.5 -63q-2 -12 -2 -16q0 -33 26.5 -48.5t69.5 -15.5q27 0 55 4.5t44 10.5l-8 -49
q-19 -8 -49 -12.5t-59 -4.5q-62 0 -102 25t-40 76q0 54 32 89.5t77 45.5l1 2q-33 8 -52 29.5t-19 54.5q0 6 2 22q11 60 57.5 89t104.5 29h5l26 147q-44 -28 -104 -28h-179l-67 -382h-59l54 306l-351 -306h-78l1 5l439 369q2 64 -38 105t-110 41q-86 0 -148.5 -54t-78.5 -145
h-64q14 76 54.5 133.5t100 89t129.5 31.5q67 0 110.5 -28.5t61.5 -79.5l39 219h-534l10 54h1072l-10 -54h-479z" />
    <glyph glyph-name="dvvLL" unicode="&#x961;" horiz-adv-x="908" 
d="M717 686l-24 -139q60 -10 93 -54t33 -113q0 -31 -5 -56q-9 -55 -33 -100h-39q-43 0 -74.5 -19.5t-39.5 -61.5q-2 -12 -2 -17q0 -32 25.5 -47.5t67.5 -15.5h43l-8 -49h-46q-45 0 -77.5 -19t-40.5 -63q-1 -5 -1 -15q0 -34 26 -49.5t69 -15.5q27 0 55 4.5t45 10.5l-9 -49
q-18 -8 -48 -12.5t-60 -4.5q-62 0 -101.5 25t-39.5 76q0 54 32 89.5t77 45.5l1 2q-33 8 -52 29t-19 54q0 7 2 23q11 60 57.5 89t103.5 29h6q10 25 17 61q4 21 4 45q0 57 -28 90.5t-84 33.5q-72 0 -120.5 -54.5t-60.5 -145.5l-2 -15h-55l2 15q4 28 4 60q0 140 -106 140
q-70 0 -117 -47t-60 -123q-4 -21 -4 -46q0 -65 36.5 -102t107.5 -37q8 0 30 2l-10 -57q-26 -2 -34 -2q-96 0 -145.5 50t-49.5 136q0 24 5 57q18 104 83 165t157 61q73 0 108 -45.5t37 -108.5h3q24 59 68 101.5t111 50.5l24 138h-625l10 54h959l-9 -54h-273z" />
    <glyph glyph-name="dvmvL" unicode="&#x962;" horiz-adv-x="0" 
d="M-79 -286q-30 -28 -30 -69q0 -31 22.5 -47t56.5 -16q24 0 43 7l-8 -43q-24 -6 -48 -6q-52 0 -84 24t-32 70q0 55 36.5 94.5t92.5 45.5q5 14 11 40q3 18 3 33q0 40 -19.5 63.5t-59.5 23.5q-49 0 -80.5 -38t-44.5 -103l-2 -11h-45l2 11q5 21 5 48q0 44 -19.5 68.5
t-57.5 24.5q-50 0 -82.5 -33.5t-41.5 -87.5q-3 -17 -3 -30q0 -45 26 -72t75 -27q10 0 22 2l-9 -45q-12 -2 -24 -2q-70 0 -106.5 36.5t-36.5 98.5q0 12 4 40q13 76 62 120.5t116 44.5q53 0 77.5 -32t26.5 -78h2q19 46 56 78t94 32q55 0 85.5 -33t30.5 -91q0 -13 -4 -41
q-6 -38 -24 -72h-6q-52 0 -82 -28z" />
    <glyph glyph-name="dvmvLL" unicode="&#x963;" horiz-adv-x="0" 
d="M-73 -271.5q-22 -13.5 -27 -42.5q-1 -4 -1 -10q0 -24 17.5 -35.5t47.5 -11.5h31l-7 -40h-30q-33 0 -56.5 -13t-29.5 -45q-1 -4 -1 -10q0 -23 19 -34t49 -11q36 0 72 12l-7 -40q-36 -12 -78 -12q-46 0 -75 18t-29 56q0 40 23.5 65t56.5 32v2q-24 6 -37.5 22t-13.5 41
q0 10 1 16q8 44 41.5 65.5t75.5 21.5h1q5 13 11 39q3 18 3 33q0 40 -19.5 63.5t-59.5 23.5q-49 0 -80.5 -38t-44.5 -103l-2 -11h-44l2 11q5 28 5 46q0 44 -20 69.5t-58 25.5q-50 0 -82.5 -33.5t-41.5 -87.5q-3 -17 -3 -30q0 -46 26 -72.5t76 -26.5q9 0 21 2l-8 -45
q-14 -2 -25 -2q-70 0 -106 37t-36 99q0 18 3 39q14 76 62.5 120.5t115.5 44.5q53 0 77.5 -32t26.5 -78h2q19 46 56 78t94 32q55 0 85.5 -33t30.5 -91q0 -13 -4 -41q-6 -38 -24 -72h-30q-30 0 -52 -13.5z" />
    <glyph glyph-name="danda" unicode="&#x964;" horiz-adv-x="266" 
d="M157 0h-63l130 742h63z" />
    <glyph glyph-name="doubledanda" unicode="&#x965;" horiz-adv-x="460" 
d="M157 0h-63l130 742h63zM352 0h-64l130 742h64z" />
    <glyph glyph-name="dvZero" unicode="&#x966;" horiz-adv-x="584" 
d="M47 214q0 -105 45 -161.5t149 -56.5q135 0 205.5 94.5t100.5 265.5q14 78 14 141q0 104 -45 160.5t-149 56.5q-136 0 -206 -94t-100 -264q-14 -79 -14 -142zM436.5 199.5q-24.5 -63.5 -69 -100.5t-115.5 -37q-74 0 -105 41t-31 117q0 60 14 136q16 92 40.5 155t69 100
t115.5 37q74 0 105 -40.5t31 -116.5q0 -59 -14 -135q-16 -93 -40.5 -156.5z" />
    <glyph glyph-name="dvOne" unicode="&#x967;" horiz-adv-x="269" 
d="M65 640l11 65h179l-124 -705h-73l113 640h-106z" />
    <glyph glyph-name="dvTwo" unicode="&#x968;" horiz-adv-x="559" 
d="M318 283.5q126 113.5 144 210.5q4 20 4 43q0 54 -31 86t-98 32q-77 0 -125.5 -47t-63.5 -133h-69q21 118 94.5 179t175.5 61q87 0 138.5 -42t51.5 -124q0 -20 -5 -52q-14 -79 -84 -161.5t-165 -153t-190 -121.5h379l-10 -58h-480l9 50q199 117 325 230.5z" />
    <glyph glyph-name="dvThree" unicode="&#x969;" horiz-adv-x="555" 
d="M496 677.5q48 -42.5 48 -111.5q0 -17 -3 -37q-11 -62 -59 -105t-129 -51l-1 -6q66 -17 104.5 -56t38.5 -104q0 -22 -4 -42q-13 -77 -74 -124.5t-163 -47.5q-114 0 -174.5 56.5t-56.5 160.5h69q-2 -72 39 -114t129 -42q69 0 111.5 33t51.5 86q3 17 3 32q0 65 -50.5 99
t-142.5 34h-22l10 59h22q204 0 228 127q3 15 3 28q0 50 -33 79.5t-94 29.5q-66 0 -120 -37.5t-70 -110.5h-69q19 97 91.5 152t179.5 55q89 0 137 -42.5z" />
    <glyph glyph-name="dvFour" unicode="&#x96a;" horiz-adv-x="584" 
d="M-5 170l11 58l457 480h74l-83 -476h109l-11 -62h-110l-29 -170h-71l29 170h-376zM455 621l-374 -389h306z" />
    <glyph glyph-name="dvFive" unicode="&#x96b;" horiz-adv-x="594" 
d="M568 649h-374l-46 -261q33 36 87 58t112 22q96 0 142.5 -51t46.5 -133q0 -29 -6 -59q-18 -100 -87 -165t-182 -65q-103 0 -161.5 51t-58.5 139l1 18h69q0 -70 42 -108t116 -38q81 0 130.5 46.5t62.5 122.5q4 21 4 47q0 65 -37 101.5t-107 36.5q-52 0 -103 -24.5
t-81 -65.5h-67l69 390h439z" />
    <glyph glyph-name="dvSix" unicode="&#x96c;" horiz-adv-x="598" 
d="M364 662q-96 0 -156 -80t-84 -257q25 66 89 104.5t142 38.5q91 0 140.5 -47t49.5 -133q0 -30 -6 -63q-11 -64 -44.5 -116.5t-90.5 -84t-135 -31.5q-119 0 -169 60.5t-50 166.5q0 56 13 129q32 183 105.5 277t206.5 94q101 0 146 -55.5t44 -145.5h-67q-5 143 -134 143z
M114 203q0 -65 39 -107t120 -42q77 0 131.5 45.5t68.5 126.5q5 28 5 49q0 67 -38.5 102t-107.5 35q-46 0 -92 -18.5t-79.5 -56t-42.5 -92.5q-4 -19 -4 -42z" />
    <glyph glyph-name="dvSeven" unicode="&#x96d;" horiz-adv-x="472" 
d="M510 653l-386 -653h-74l388 646h-389l11 61h459z" />
    <glyph glyph-name="dvEight" unicode="&#x96e;" horiz-adv-x="613" 
d="M149 636.5q35 39.5 93 62.5t133 23q100 0 154 -44t54 -116q0 -17 -3 -35q-10 -56 -51.5 -96.5t-113.5 -58.5q62 -16 95.5 -56t33.5 -100q0 -22 -4 -41q-16 -92 -95 -144.5t-201 -52.5q-104 0 -163.5 47t-59.5 131q0 23 4 43q12 66 61 110.5t126 62.5q-56 15 -83.5 50.5
t-27.5 85.5q0 13 4 39q9 50 44 89.5zM170 505q0 -54 39.5 -83.5t107.5 -29.5q78 0 129.5 33.5t62.5 94.5q3 17 3 30q0 55 -39.5 84.5t-107.5 29.5q-77 0 -129 -33.5t-63 -95.5q-3 -16 -3 -30zM91 167q0 -62 43.5 -96t119.5 -34q87 0 145 39t71 109q3 17 3 32q0 63 -45.5 94
t-119.5 31q-82 0 -141.5 -35.5t-72.5 -106.5q-3 -18 -3 -33z" />
    <glyph glyph-name="dvNine" unicode="&#x96f;" horiz-adv-x="602" 
d="M145.5 87.5q31.5 -37.5 98.5 -37.5q98 0 160 80.5t87 256.5q-26 -65 -90 -104t-141 -39q-92 0 -141.5 47.5t-49.5 134.5q0 28 6 61q11 64 45 116.5t92 84t136 31.5q118 0 168 -59t50 -163q0 -52 -14 -134q-32 -181 -105.5 -276t-210.5 -95q-98 0 -144.5 56.5t-41.5 145.5
h66q-2 -69 29.5 -106.5zM501 509q0 65 -39 107t-120 42q-77 0 -131.5 -46t-68.5 -128q-5 -28 -5 -48q0 -66 38.5 -101t107.5 -35q46 0 91.5 18.5t79 56.5t43.5 93q4 28 4 41z" />
    <glyph glyph-name="dvAbbreviationsign" unicode="&#x970;" horiz-adv-x="498" 
d="M349 236.5q-52 -44.5 -124 -44.5q-64 0 -103.5 36t-39.5 93q0 15 3 31q12 71 66 115.5t127 44.5q63 0 100.5 -35t37.5 -94q0 -15 -3 -32q-12 -70 -64 -114.5zM154 260q28 -26 76 -26q52 0 91 32.5t49 84.5q2 16 2 24q0 43 -27 69t-73 26q-40 0 -73.5 -18.5t-53 -50.5
t-19.5 -72q0 -43 28 -69z" />
    <glyph glyph-name="dvAcandra" unicode="&#x972;" horiz-adv-x="823" 
d="M917 740l-8 -54h-141l-121 -686h-64l61 344l-181 1q14 -31 14 -67q0 -17 -3 -35q-15 -86 -79.5 -138.5t-155.5 -52.5q-85 0 -136 44.5t-51 117.5q0 11 4 39h60q-2 -10 -2 -28q0 -53 35.5 -85.5t95.5 -32.5q66 0 113 39.5t58 102.5q3 14 3 28q0 39 -22 68h-2v3
q-33 41 -107 41h-38l10 52h37q46 0 81 17.5t56 45.5t26 59q3 15 3 27q0 49 -32.5 76.5t-84.5 27.5q-62 0 -110 -34.5t-57 -91.5h-59q15 83 80.5 132t154.5 49q76 0 122 -38.5t46 -104.5q0 -16 -3 -33q-11 -59 -50.5 -100.5t-103.5 -55.5v-1q29 -5 50 -18h238l60 342h203z
M718 883.5q-44 39.5 -44 99.5q0 13 3 28h56q-2 -14 -2 -20q0 -41 29.5 -69.5t89.5 -28.5q68 0 110 35.5t50 82.5h55q-12 -70 -67.5 -118.5t-150.5 -48.5q-85 0 -129 39.5z" />
    <glyph glyph-name="Wgrave" unicode="&#x1e80;" horiz-adv-x="953" 
d="M979 705l-306 -705h-84l-70 604l-283 -604h-84l-58 705h78l38 -618l287 618h79l70 -619l256 619h77zM584 801l-10 -52l-183 121l11 59z" />
    <glyph glyph-name="wgrave" unicode="&#x1e81;" horiz-adv-x="828" 
d="M857 546l-258 -546h-73l-83 465l-247 -465h-74l-64 546h72l46 -473l247 473h72l82 -473l213 473h67zM495 642l-10 -52l-183 121l11 59z" />
    <glyph glyph-name="Wacute" unicode="&#x1e82;" horiz-adv-x="953" 
d="M979 705l-306 -705h-84l-70 604l-283 -604h-84l-58 705h78l38 -618l287 618h79l70 -619l256 619h77zM739 870l-227 -121l10 52l228 128z" />
    <glyph glyph-name="wacute" unicode="&#x1e83;" horiz-adv-x="828" 
d="M857 546l-258 -546h-73l-83 465l-247 -465h-74l-64 546h72l46 -473l247 473h72l82 -473l213 473h67zM650 711l-227 -121l10 52l228 128z" />
    <glyph glyph-name="Wdieresis" unicode="&#x1e84;" horiz-adv-x="953" 
d="M984 705l-306 -705h-84l-70 604l-283 -604h-84l-58 705h78l38 -618l287 618h79l70 -619l256 619h77zM463.5 859.5q14.5 12.5 33.5 12.5t29.5 -12.5t7.5 -31.5q-4 -18 -19 -31t-33 -13q-16 0 -26.5 10t-10.5 25q0 6 1 9q3 19 17.5 31.5zM620.5 859.5q14.5 12.5 33.5 12.5
q18 0 28.5 -12.5t7.5 -31.5q-4 -18 -18.5 -31t-32.5 -13q-16 0 -26.5 10t-10.5 25q0 6 1 9q3 19 17.5 31.5z" />
    <glyph glyph-name="wdieresis" unicode="&#x1e85;" horiz-adv-x="828" 
d="M862 546l-258 -546h-73l-83 465l-247 -465h-74l-64 546h72l46 -473l247 473h72l82 -473l213 473h67zM375.5 700.5q14.5 12.5 33.5 12.5t29.5 -12.5t7.5 -31.5q-4 -18 -19 -31t-33 -13q-16 0 -26.5 10t-10.5 25q0 6 1 9q3 19 17.5 31.5zM532.5 700.5q14.5 12.5 33.5 12.5
q18 0 28.5 -12.5t7.5 -31.5q-4 -18 -18.5 -31t-32.5 -13q-16 0 -26.5 10t-10.5 25q0 6 1 9q3 19 17.5 31.5z" />
    <glyph glyph-name="uni1EBC" unicode="&#x1ebc;" horiz-adv-x="498" 
d="M203 648l-47 -266h276l-11 -55h-275l-47 -269h305l-10 -58h-376l124 705h376l-10 -57h-305zM338.5 852.5q12.5 -6.5 27.5 -19.5q14 -12 24 -17.5t25 -5.5q17 0 31.5 12t20.5 35h41q-13 -44 -40.5 -68.5t-62.5 -24.5q-20 0 -33.5 7t-29.5 20q-13 11 -22.5 16.5t-22.5 5.5
q-36 0 -52 -48h-40q15 46 41 70t61 24q19 0 31.5 -6.5z" />
    <glyph glyph-name="uni1EBD" unicode="&#x1ebd;" horiz-adv-x="625" 
d="M490 526.5q49 -26.5 74 -71.5t25 -101q0 -25 -4 -46q-5 -29 -14 -51h-451q-4 -32 -4 -45q0 -80 46 -120.5t117 -40.5q73 0 129.5 37t78.5 100h74q-31 -87 -108 -141t-182 -54q-102 0 -162.5 58t-60.5 160q0 31 6 65q15 85 60.5 148t112 96t143.5 33q71 0 120 -26.5z
M520 350q0 72 -45.5 109t-114.5 37q-82 0 -147.5 -51.5t-85.5 -151.5h386q7 29 7 57zM358.5 693.5q12.5 -6.5 27.5 -19.5q14 -12 24 -17.5t25 -5.5q17 0 31.5 12t20.5 35h41q-13 -44 -40.5 -68.5t-62.5 -24.5q-20 0 -33.5 7t-29.5 20q-13 11 -22.5 16.5t-22.5 5.5
q-36 0 -52 -48h-40q15 46 41 70t61 24q19 0 31.5 -6.5z" />
    <glyph glyph-name="Ygrave" unicode="&#x1ef2;" horiz-adv-x="571" 
d="M609 705l-303 -430l-48 -275h-71l48 275l-152 430h81l119 -356l245 356h81zM393 801l-10 -52l-183 121l11 59z" />
    <glyph glyph-name="ygrave" unicode="&#x1ef3;" horiz-adv-x="547" 
d="M120 546l110 -455l256 455h78l-464 -804h-79l157 264l-136 540h78zM346 642l-10 -52l-183 121l11 59z" />
    <glyph glyph-name="uni1EF8" unicode="&#x1ef8;" horiz-adv-x="571" 
d="M615 705l-303 -430l-48 -275h-71l48 275l-152 430h81l119 -356l245 356h81zM359.5 852.5q12.5 -6.5 27.5 -19.5q14 -12 24 -17.5t25 -5.5q17 0 31.5 12t20.5 35h41q-13 -44 -40.5 -68.5t-62.5 -24.5q-20 0 -33.5 7t-29.5 20q-13 11 -22.5 16.5t-22.5 5.5q-36 0 -52 -48
h-40q15 46 41 70t61 24q19 0 31.5 -6.5z" />
    <glyph glyph-name="uni1EF9" unicode="&#x1ef9;" horiz-adv-x="547" 
d="M122 546l110 -455l256 455h78l-464 -804h-79l157 264l-136 540h78zM307.5 693.5q12.5 -6.5 27.5 -19.5q14 -12 24 -17.5t25 -5.5q17 0 31.5 12t20.5 35h41q-13 -44 -40.5 -68.5t-62.5 -24.5q-20 0 -33.5 7t-29.5 20q-13 11 -22.5 16.5t-22.5 5.5q-36 0 -52 -48h-40
q15 46 41 70t61 24q19 0 31.5 -6.5z" />
    <glyph glyph-name="zerowidthnonjoiner" unicode="&#x200c;" horiz-adv-x="0" 
d="M-23 811h47v-1041h-47v1041z" />
    <glyph glyph-name="zerowidthjoiner" unicode="&#x200d;" horiz-adv-x="0" 
d="M23 635v-865h-47v865l-69 -73l-33 33l93 93l-95 95l33 33l95 -95l96 95l32 -32l-96 -96l96 -95l-33 -33z" />
    <glyph glyph-name="endash" unicode="&#x2013;" horiz-adv-x="607" 
d="M568 400l-11 -59h-519l11 59h519z" />
    <glyph glyph-name="emdash" unicode="&#x2014;" horiz-adv-x="807" 
d="M769 400l-11 -59h-720l11 59h720z" />
    <glyph glyph-name="quoteleft" unicode="&#x2018;" horiz-adv-x="162" 
d="M33 672q19 102 110 102l-6 -34q-25 0 -38.5 -13t-18.5 -40l-4 -24h46l-13 -77h-81q-1 48 5 86z" />
    <glyph glyph-name="quoteright" unicode="&#x2019;" horiz-adv-x="162" 
d="M129 689q-19 -103 -110 -103l7 35q25 0 38 13t18 39l5 25h-47l13 76h81q1 -47 -5 -85z" />
    <glyph glyph-name="quotesinglbase" unicode="&#x201a;" horiz-adv-x="173" 
d="M107 31q0 -66 -29 -107t-85 -41l6 33q25 0 38 13.5t18 41.5l2 8h-45l13 77h81q1 -9 1 -25z" />
    <glyph glyph-name="quotedblleft" unicode="&#x201c;" horiz-adv-x="283" 
d="M33 672q19 102 110 102l-6 -34q-25 0 -38.5 -13t-18.5 -40l-4 -24h46l-13 -77h-81q-1 48 5 86zM154 672q19 102 110 102l-7 -34q-25 0 -38.5 -13t-18.5 -40l-4 -24h47l-13 -77h-81q-1 48 5 86z" />
    <glyph glyph-name="quotedblright" unicode="&#x201d;" horiz-adv-x="283" 
d="M129 689q-19 -103 -110 -103l7 35q25 0 38 13t18 39l5 25h-47l13 76h81q1 -47 -5 -85zM249 689q-17 -103 -109 -103l6 35q25 0 38.5 12.5t18.5 39.5l4 25h-46l13 76h81q1 -41 -6 -85z" />
    <glyph glyph-name="quotedblbase" unicode="&#x201e;" horiz-adv-x="283" 
d="M104 -9q-19 -103 -110 -103l7 35q25 0 38 13t18 39l5 25h-47l13 76h81q1 -47 -5 -85zM224 -9q-17 -103 -109 -103l6 35q25 0 38.5 12.5t18.5 39.5l4 25h-46l13 76h81q1 -41 -6 -85z" />
    <glyph glyph-name="dagger" unicode="&#x2020;" horiz-adv-x="501" 
d="M506 490l-186 6l-126 -754h-69l139 754l-188 -6l9 56l187 -6l36 239h69l-49 -239l188 6z" />
    <glyph glyph-name="daggerdbl" unicode="&#x2021;" horiz-adv-x="502" 
d="M320 496l-82 -470l188 7l-9 -58l-187 6l-37 -239h-69l50 239l-189 -6l9 58l188 -7l82 470l-188 -6l9 56l188 -6l35 239h69l-48 -239l188 6l-10 -56z" />
    <glyph glyph-name="bullet" unicode="&#x2022;" horiz-adv-x="326" 
d="M65.5 380q19.5 32 51 51t66.5 19q43 0 70.5 -27.5t27.5 -69.5q0 -36 -19.5 -66.5t-51 -49t-67.5 -18.5q-43 0 -70 26t-27 67q0 36 19.5 68z" />
    <glyph glyph-name="ellipsis" unicode="&#x2026;" horiz-adv-x="504" 
d="M297 90l-16 -90h-92l15 90h93zM472 90l-16 -90h-92l15 90h93zM122 90l-16 -90h-92l15 90h93z" />
    <glyph glyph-name="perthousand" unicode="&#x2030;" horiz-adv-x="943" 
d="M325.5 683q32.5 -31 32.5 -82q0 -14 -3 -29q-12 -64 -58.5 -103t-107.5 -39q-53 0 -85.5 30.5t-32.5 82.5q0 14 3 29q11 64 57.5 103t107.5 39q54 0 86.5 -31zM613 706l-535 -706h-70l535 706h70zM143 496q20 -20 54 -20q40 0 69.5 26.5t37.5 69.5q2 14 2 20q0 34 -20 55
t-55 21q-45 0 -76.5 -34t-31.5 -84q0 -34 20 -54zM518 245.5q32 -30.5 32 -81.5q0 -15 -3 -30q-11 -64 -57 -103.5t-107 -39.5q-54 0 -86.5 31t-32.5 83q0 14 3 29q11 64 57.5 103t107.5 39q54 0 86 -30.5zM839.5 245.5q32.5 -30.5 32.5 -82.5q0 -14 -3 -29
q-11 -64 -57 -103.5t-107 -39.5q-54 0 -87 31t-33 83q0 14 3 29q12 64 58.5 103t107.5 39q53 0 85.5 -30.5zM336 57.5q20 -20.5 54 -20.5q40 0 69 27t37 70q2 14 2 21q0 34 -20 54.5t-54 20.5q-45 0 -76.5 -34t-31.5 -84q0 -34 20 -54.5zM658 57.5q20 -20.5 54 -20.5
q40 0 69 27t37 70q2 14 2 21q0 34 -20 54.5t-54 20.5q-45 0 -76.5 -34t-31.5 -84q0 -34 20 -54.5z" />
    <glyph glyph-name="guilsinglleft" unicode="&#x2039;" horiz-adv-x="265" 
d="M114 120l-69 175l131 175h70l-132 -175l70 -175h-70z" />
    <glyph glyph-name="guilsinglright" unicode="&#x203a;" horiz-adv-x="265" 
d="M153 295l-72 175h72l67 -175l-129 -175h-72z" />
    <glyph glyph-name="fraction" unicode="&#x2044;" horiz-adv-x="294" 
d="M450 706l-536 -706h-71l536 706h71z" />
    <glyph glyph-name="rupee" unicode="&#x20a8;" horiz-adv-x="1050" 
d="M508.5 662q50.5 -43 50.5 -118q0 -25 -4 -46q-16 -88 -75 -140t-155 -62l148 -296h-80l-142 294h-114l-51 -294h-71l124 705h216q103 0 153.5 -43zM487 532q0 112 -148 112h-140l-53 -297h141q169 0 196 147q4 26 4 38zM931 379q2 52 -29 86t-94 34q-56 0 -92.5 -26.5
t-44.5 -70.5q-1 -5 -1 -15q0 -38 33 -55.5t99 -32.5q54 -13 86 -25t55 -36.5t23 -65.5q0 -50 -26.5 -91t-73.5 -64.5t-106 -23.5q-95 0 -147.5 46.5t-49.5 127.5h69q-3 -52 32.5 -86t104.5 -34q54 0 88 27t42 70q1 6 1 16q0 28 -18 45.5t-44.5 27t-72.5 20.5q-52 13 -84 25
t-54 35.5t-22 62.5q0 51 27 91.5t75.5 63t110.5 22.5q91 0 138 -47t44 -127h-69z" />
    <glyph glyph-name="Euro" unicode="&#x20ac;" horiz-adv-x="825" 
d="M562 103.5q73 45.5 114 120.5h74q-52 -108 -146 -169.5t-221 -61.5q-81 0 -141.5 32t-95.5 90.5t-39 135.5h-106l7 38h98q2 34 7 63q5 26 12 51h-97l6 38h103q46 123 146.5 197t225.5 74q127 0 199.5 -61.5t86.5 -169.5h-73q-15 76 -72 121t-153 45q-92 0 -169.5 -55
t-116.5 -151h261l-7 -38h-268q-8 -24 -12 -51q-6 -33 -6 -63h266l-6 -38h-259q10 -91 67.5 -142t146.5 -51q95 0 168 45.5z" />
    <glyph glyph-name="indianrupee" unicode="&#x20b9;" horiz-adv-x="650" 
d="M489 526q0 -2 -1 -3h142l-8 -44h-143q-18 -69 -53.5 -108t-98.5 -56t-167 -17l-18 -101q-4 -21 -4 -46q0 -106 109 -106q126 0 152 146h66q-18 -96 -76.5 -148.5t-148.5 -52.5q-84 0 -126.5 40t-42.5 114q0 27 6 58l26 145q118 0 178 10t89.5 37.5t43.5 84.5h-329l8 44
h330q1 1 1 3l23 129h-331l8 50h538l-9 -50h-140z" />
    <glyph glyph-name="uni20BA" unicode="&#x20ba;" horiz-adv-x="782" 
d="M741 406q-37 -213 -142.5 -319.5t-291.5 -106.5q-68 0 -145 17l45 255l-180 -43l9 47l179 43l21 120l-179 -45l8 46l180 45l42 241h71l-39 -222l201 50l-8 -47l-201 -50l-21 -120l201 49l-8 -47l-202 -49l-38 -217q35 -7 75 -7q149 0 235 91.5t117 268.5h71z" />
    <glyph glyph-name="uni20BD" unicode="&#x20bd;" horiz-adv-x="618" 
d="M563.5 664q50.5 -41 50.5 -115q0 -24 -4 -45q-17 -98 -86.5 -149t-184.5 -51h-141l-20 -114h234l-10 -55h-233l-24 -135h-71l24 135h-85l9 55h85l20 114h-84l10 58h85l60 343h211q104 0 154.5 -41zM542 540q0 109 -146 109h-137l-50 -287h137q168 0 193 142q3 20 3 36z
" />
    <glyph glyph-name="uni2113" unicode="&#x2113;" horiz-adv-x="208" 
d="M208 740l-130 -740h-71l130 740h71z" />
    <glyph glyph-name="trademark" unicode="&#x2122;" horiz-adv-x="754" 
d="M307 658h-99l-54 -304h-54l54 304h-101l8 47h254zM747 705l-62 -351h-50l46 270l-168 -270h-41l-72 274l-49 -274h-48l62 351h67l72 -289l180 289h63z" />
    <glyph glyph-name="uni2126" unicode="&#x2126;" horiz-adv-x="793" 
d="M668.5 172.5q-61.5 -81.5 -155.5 -117.5h166l-9 -55h-276l10 60q103 20 177 98t94 195q6 33 6 64q0 70 -29 122.5t-81.5 81t-121.5 28.5q-80 0 -151 -37.5t-119.5 -105t-63.5 -153.5q-6 -33 -6 -64q0 -92 47 -152t128 -77l-11 -60h-276l10 55h168q-67 29 -101.5 90
t-34.5 142q0 30 7 74q19 104 79.5 184t148.5 124t186 44q85 0 152 -34.5t105 -98.5t38 -148q0 -27 -7 -71q-18 -107 -79.5 -188.5z" />
    <glyph glyph-name="estimated" unicode="&#x212e;" horiz-adv-x="764" 
d="M119.5 61.5q-78.5 68.5 -78.5 192.5q0 38 7 76q18 103 71.5 186.5t137 132t187.5 48.5q91 0 154 -35.5t95 -95t32 -132.5q0 -26 -5 -59l-11 -61h-544l-29 -165q32 -53 79.5 -79t122.5 -26q73 0 138 32.5t144 99.5l29 -38q-160 -145 -320 -145q-131 0 -209.5 68.5z
M619 550q-24 46 -71.5 71.5t-112.5 25.5q-67 0 -126 -27t-104 -81l-30 -167h413z" />
    <glyph glyph-name="partialdiff" unicode="&#x2202;" horiz-adv-x="558" 
d="M460 420q0 -18 -1 -28q14 82 14 131q0 83 -33.5 128t-109.5 45q-36 0 -78 -11l7 42q53 13 99 13q180 0 180 -208q0 -58 -11 -117q-23 -129 -75 -225.5t-125.5 -148.5t-159.5 -52q-71 0 -115 42.5t-44 124.5q0 29 6 60q16 90 60.5 167.5t111.5 124t147 46.5
q127 0 127 -134zM219.5 458.5q-50.5 -36.5 -85.5 -100t-49 -142.5q-5 -30 -5 -49q0 -57 28 -85.5t74 -28.5q61 0 112.5 37.5t87 100.5t48.5 138q5 33 5 53q0 57 -27.5 85t-79.5 28q-58 0 -108.5 -36.5z" />
    <glyph glyph-name="uni2206" unicode="&#x2206;" horiz-adv-x="667" 
d="M423 690l173 -634l-10 -56h-627l10 56l395 634h59zM41 56h483l-145 554z" />
    <glyph glyph-name="product" unicode="&#x220f;" horiz-adv-x="737" 
d="M748 706l-10 -55h-82l-114 -651h-71l115 651h-330l-115 -651h-70l114 651h-81l10 55h634z" />
    <glyph glyph-name="summation" unicode="&#x2211;" horiz-adv-x="436" 
d="M491 635h-335l218 -294l-10 -56l-323 -304h335l-10 -55h-394l15 80l317 304l-211 301l15 79h393z" />
    <glyph glyph-name="minus" unicode="&#x2212;" horiz-adv-x="460" 
d="M433 400l-11 -59h-390l11 59h390z" />
    <glyph glyph-name="uni2215" unicode="&#x2215;" horiz-adv-x="369" 
d="M455 940l-471 -1107h-68l469 1107h70z" />
    <glyph glyph-name="uni2219" unicode="&#x2219;" horiz-adv-x="161" 
d="M164 390l-16 -90h-92l15 90h93z" />
    <glyph glyph-name="radical" unicode="&#x221a;" horiz-adv-x="750" 
d="M807 860l-639 -905h-30l-81 209l-68 -35l-16 38l135 70l77 -197l576 820h46z" />
    <glyph glyph-name="infinity" unicode="&#x221e;" horiz-adv-x="643" 
d="M618 461.5q33 -28.5 33 -80.5q0 -15 -3 -33q-12 -66 -60.5 -104.5t-112.5 -38.5q-56 0 -90.5 27.5t-63.5 76.5q-34 -46 -80 -75t-100 -29q-59 0 -91.5 29t-32.5 81q0 16 3 32q11 66 59.5 104.5t112.5 38.5q55 0 88 -29t62 -81q33 48 81 79t103 31q59 0 92 -28.5zM230 280
q37 24 69 67q-26 47 -49.5 70.5t-60.5 23.5q-44 0 -74 -25.5t-38 -68.5q-2 -14 -2 -20q0 -33 20 -52t59 -19t76 24zM572 421.5q-20 18.5 -58 18.5q-41 0 -79 -26t-72 -72q25 -43 50 -65.5t65 -22.5q50 0 82 33t32 83q0 33 -20 51.5z" />
    <glyph glyph-name="integral" unicode="&#x222b;" horiz-adv-x="254" 
d="M275.5 882.5q39.5 29.5 99.5 29.5h21l-17 -61h-21q-26 0 -43 -13.5t-27 -47.5l-241 -840q-19 -68 -55.5 -99t-98.5 -31h-25l16 61h26q29 0 42 14t25 55l241 840q18 63 57.5 92.5z" />
    <glyph glyph-name="approxequal" unicode="&#x2248;" horiz-adv-x="487" 
d="M206 341.5q19 -9.5 45 -27.5q21 -15 36 -22.5t33 -7.5q26 0 46 18.5t30 48.5h57q-22 -64 -61 -98t-89 -34q-25 0 -44 9t-44 27q-22 16 -36.5 23.5t-33.5 7.5q-25 0 -45.5 -18.5t-31.5 -48.5h-56q22 64 60.5 98t88.5 34q26 0 45 -9.5zM241 541.5q19 -9.5 45 -27.5
q21 -15 36 -22.5t33 -7.5q26 0 46 18.5t30 48.5h57q-22 -64 -61 -98t-89 -34q-25 0 -44 9t-44 27q-22 16 -36.5 23.5t-33.5 7.5q-25 0 -45.5 -18.5t-31.5 -48.5h-56q22 64 60.5 98t88.5 34q26 0 45 -9.5z" />
    <glyph glyph-name="notequal" unicode="&#x2260;" horiz-adv-x="580" 
d="M377 440l-129 -139h286l-11 -64h-335l-99 -107h-44l99 107h-130l11 64h179l128 139h-283l11 64h332l99 107h45l-99 -107h133l-11 -64h-182z" />
    <glyph glyph-name="lessequal" unicode="&#x2264;" horiz-adv-x="417" 
d="M135 409l218 -193h-89l-220 193l287 194h89zM11 171h338l-10 -56h-338z" />
    <glyph glyph-name="greaterequal" unicode="&#x2265;" horiz-adv-x="417" 
d="M15 216l283 192l-216 195h89l220 -194l-287 -193h-89zM2 171h339l-10 -56h-339z" />
    <glyph glyph-name="lozenge" unicode="&#x25ca;" horiz-adv-x="551" 
d="M511 349l-277 -235l-194 235l278 236zM121 349l126 -156l185 156l-128 157z" />
    <glyph glyph-name="dottedcircle" unicode="&#x25cc;" horiz-adv-x="651" 
d="M270 467.5q-12 11.5 -12 30.5t12 30.5t31 11.5t31 -11.5t12 -30.5t-12 -30.5t-31 -11.5t-31 11.5zM391 452.5q-12 11.5 -12 30.5t12 30.5t31 11.5t31 -11.5t12 -30.5t-12 -30.5t-31 -11.5t-31 11.5zM153 425.5q-12 11.5 -12 30.5t12 30.5t31 11.5t31 -11.5t12 -30.5
t-12 -30.5t-31 -11.5t-31 11.5zM483 378.5q-12 11.5 -12 30.5t12 30.5t31 11.5t31 -11.5t12 -30.5t-12 -30.5t-31 -11.5t-31 11.5zM77 326.5q-12 11.5 -12 30.5t12 30.5t31 11.5t31 -11.5t12 -30.5t-12 -30.5t-31 -11.5t-31 11.5zM527 264.5q-12 11.5 -12 30.5t12 30.5
t31 11.5t31 -11.5t12 -30.5t-12 -30.5t-31 -11.5t-31 11.5zM62 205.5q-12 11.5 -12 30.5t12 30.5t31 11.5t31 -11.5t12 -30.5t-12 -30.5t-31 -11.5t-31 11.5zM517 144.5q-12 11.5 -12 30.5t12 30.5t31 11.5t31 -11.5t12 -30.5t-12 -30.5t-31 -11.5t-31 11.5zM107 92.5
q-12 11.5 -12 30.5t12 30.5t31 11.5t31 -11.5t12 -30.5t-12 -30.5t-31 -11.5t-31 11.5zM444 48.5q-12 11.5 -12 30.5t12 30.5t31 11.5t31 -11.5t12 -30.5t-12 -30.5t-31 -11.5t-31 11.5zM205 16.5q-12 11.5 -12 30.5t12 30.5t31 11.5t31 -11.5t12 -30.5t-12 -30.5t-31 -11.5
t-31 11.5zM329 2.5q-12 11.5 -12 30.5t12 30.5t31 11.5t31 -11.5t12 -30.5t-12 -30.5t-31 -11.5t-31 11.5z" />
    <glyph glyph-name="fi" unicode="&#xfb01;" horiz-adv-x="549" 
d="M207 546h304l-96 -546h-71l85 484h-233l-86 -484h-70l85 484h-80l11 62h80l5 27q16 92 73 137.5t162 42.5l-10 -62q-75 1 -109 -27.5t-46 -95.5zM544 738.5q12 -10.5 12 -27.5q0 -24 -17.5 -39.5t-42.5 -15.5q-20 0 -32 10t-12 27q0 24 17.5 40t42.5 16q20 0 32 -10.5z
" />
    <glyph glyph-name="fl" unicode="&#xfb02;" horiz-adv-x="549" 
d="M211.5 711q58.5 46 164.5 42l-10 -62q-76 1 -111.5 -27.5t-47.5 -95.5l-4 -22h137l-11 -62h-137l-85 -484h-71l85 484h-81l11 62h81l5 27q16 92 74.5 138zM544 740l-130 -740h-71l130 740h71z" />
    <glyph glyph-name="dvK_SSA" horiz-adv-x="786" 
d="M883 740l-9 -54h-141l-121 -686h-62l68 386h-287q-6 -3 -13.5 -6.5t-15.5 -7.5q-58 -26 -92 -46t-60.5 -49.5t-33.5 -72.5q-2 -16 -2 -24q0 -43 27.5 -69.5t77.5 -26.5q59 0 100 37.5t51 93.5h55l-47 -267h-60l29 164q-16 -29 -57 -55.5t-99 -26.5q-67 0 -106 35.5
t-39 94.5q0 17 3 33q10 54 42.5 92.5t72.5 62t108 55.5q-58 11 -95.5 48.5t-37.5 96.5q0 16 3 32q9 53 41 91.5t77.5 58.5t96.5 20q69 0 114 -36.5t45 -99.5q0 -14 -3 -31q-9 -48 -36 -83.5t-69 -64.5h219l54 305h202zM235 468q38 -30 102 -33q51 28 81.5 60t38.5 78
q2 16 2 23q0 45 -31 72t-80 27q-38 0 -73 -17.5t-56.5 -51t-21.5 -77.5q0 -51 38 -81z" />
    <glyph glyph-name="dvJ_NYA" horiz-adv-x="796" 
d="M890 740l-9 -54h-141l-121 -686h-63l84 478h-230q40 -19 61.5 -53.5t21.5 -83.5q0 -17 -3 -37q-13 -83 -72.5 -134.5t-142.5 -51.5q-66 0 -110 27.5t-58 69.5l-29 -171h-62l47 270h60q-5 -68 35.5 -105.5t103.5 -37.5q67 0 113.5 41.5t58.5 105.5q3 17 3 31q0 61 -44 95
t-116 34h-14l9 53h378l27 155h-650l10 54h853z" />
    <glyph glyph-name="dvK" horiz-adv-x="748" 
d="M593 686l-41 -233q31 51 80.5 82t116.5 31q79 0 128.5 -49t49.5 -129q0 -21 -5 -49h-64q3 20 3 37q0 62 -37.5 98.5t-97.5 36.5q-77 0 -127 -49t-66 -118l-61 -344h-61l38 218q-31 -51 -83 -81.5t-120 -30.5q-81 0 -131.5 49t-50.5 133q0 22 5 52q12 68 49 119.5t90.5 79
t115.5 27.5q70 0 111.5 -31t55.5 -82l41 233h-506l10 54h958l-10 -54h-391zM472 348q1 8 1 24q0 59 -34.5 99t-106.5 40q-46 0 -88 -21t-72 -60t-39 -91q-3 -21 -3 -39q0 -65 38.5 -102t102.5 -37q56 0 97.5 25.5t66.5 63.5t34 79z" />
    <glyph glyph-name="dvKH" horiz-adv-x="676" 
d="M127 229q-4 -28 -4 -39q0 -63 40 -99.5t113 -36.5q62 0 110 31.5t78 80.5q-38 20 -58 55t-20 83q0 23 4 43q16 93 84 148t164 55q84 0 132.5 -42t48.5 -117q0 -23 -4 -44q-16 -94 -85 -149t-163 -55q-25 0 -52 5q-36 -66 -98.5 -108t-143.5 -42q-99 0 -156 49.5
t-57 136.5q0 21 5 51l28 162h38q66 0 111.5 34t60.5 122l23 133h-299l9 54h848l-9 -54h-485l-24 -140q-19 -106 -76 -151.5t-138 -45.5h-4zM444 314q0 -56 35 -88.5t97 -32.5q70 0 120 42t62 112q3 18 3 34q0 56 -35 88t-96 32q-71 0 -120.5 -42t-62.5 -112q-3 -16 -3 -33z
" />
    <glyph glyph-name="dvG" horiz-adv-x="483" 
d="M547 686h-131l-50 -282q-13 -73 -57.5 -119t-121.5 -46q-65 0 -99.5 35t-34.5 92q0 16 3 34q4 20 7 31h62l-6 -32q-3 -13 -3 -28q0 -34 18 -55.5t57 -21.5q50 0 76 31t35 77l50 284h-326l10 54h520z" />
    <glyph glyph-name="dvGH" horiz-adv-x="441" 
d="M210 605q-3 -18 -3 -35q0 -48 31 -72t98 -24h49l-10 -53h-53q-82 0 -127.5 -34.5t-56.5 -89.5q-2 -9 -2 -25q0 -54 42 -82t111 -28q61 0 114 25.5t88.5 71t45.5 103.5h54q-13 -72 -56.5 -129.5t-110 -90.5t-144.5 -33q-98 0 -154 39.5t-56 110.5q0 16 3 34
q11 65 58.5 105t108.5 48l1 2q-45 7 -72 35t-27 79q0 21 4 40l15 84h-135l10 54h622l-10 -54h-424z" />
    <glyph glyph-name="dvNG" horiz-adv-x="649" 
d="M744 740l-10 -54h-213l-23 -133l-8 -47h-174q-57 0 -100 -20.5t-52 -73.5q-2 -14 -2 -18q0 -38 29.5 -56t75.5 -18h45q76 0 127 -33t51 -101q0 -17 -3 -35q-13 -74 -73.5 -119t-160.5 -45t-156.5 45t-56.5 117q0 16 3 31h64q-2 -9 -2 -26q0 -53 39 -85t114 -32
q70 0 114.5 33t53.5 83q2 9 2 26q0 51 -38 72.5t-97 21.5h-41q-64 0 -109 28t-45 86q0 13 3 28q12 73 69.5 105.5t133.5 32.5h132l23 133h-431l9 54h707zM622.5 433q10.5 -10 10.5 -26q0 -21 -16 -35.5t-36 -14.5q-17 0 -27.5 9.5t-10.5 24.5q0 21 15.5 36.5t37.5 15.5
q16 0 26.5 -10zM268 -99l87 -193h-66l-85 193h64z" />
    <glyph glyph-name="dvC" horiz-adv-x="468" 
d="M674 740l-10 -54h-638l10 54h638zM434 183.5q46 25.5 76.5 68.5t38.5 93h55q-10 -67 -49.5 -122t-101 -87t-132.5 -32q-84 0 -138.5 43.5t-54.5 120.5q0 11 4 39q10 58 45 103t88 70h-196l9 52h361l-9 -52h-33q-79 0 -135 -46.5t-68 -117.5q-3 -16 -3 -31q0 -60 41 -93.5
t104 -33.5q52 0 98 25.5z" />
    <glyph glyph-name="dvCH" horiz-adv-x="813" 
d="M199 574q-3 -19 -3 -35q0 -47 30 -71t95 -24h23l-9 -53h-22q-63 0 -108 -23t-67.5 -60.5t-22.5 -82.5q0 -68 62.5 -104.5t166.5 -36.5q91 0 167.5 32t127.5 91.5t65 140.5q4 20 4 42q0 56 -28.5 85.5t-70.5 29.5q-46 0 -86.5 -31t-52.5 -94q-3 -21 -3 -42q0 -30 4 -55
h-55q-4 34 -4 51q0 24 5 51q15 86 72.5 127.5t128.5 41.5q65 0 106.5 -40t41.5 -115q0 -21 -5 -53q-17 -97 -76.5 -169t-150.5 -110t-200 -38q-83 0 -147.5 22t-100.5 64t-36 100q0 18 3 36q13 70 61.5 112.5t114.5 52.5v2q-45 7 -71.5 34.5t-26.5 79.5q0 20 4 40l20 114
h-130l9 54h873l-9 -54h-679z" />
    <glyph glyph-name="dvJ" horiz-adv-x="557" 
d="M757 740l-10 -54h-720l10 54h720zM705 447h-241l-20 -112q-15 -88 -73.5 -142t-145.5 -54q-71 1 -112 43t-41 111q0 24 4 44l29 165h64l-29 -166q-3 -19 -3 -36q0 -48 25.5 -76t71.5 -28q57 0 97 38.5t51 101.5l30 166h303z" />
    <glyph glyph-name="dvJH" horiz-adv-x="566" 
d="M526 686l-23 -132l-2 -9l-2 -13l-5 -26h-174q-56 0 -100.5 -20.5t-53.5 -73.5q-2 -14 -2 -18q0 -38 30 -56t77 -18h45h363l-8 -49l-224 1q44 -33 44 -94q0 -15 -3 -32q-12 -66 -63.5 -108.5t-136.5 -42.5q-74 0 -114 31.5t-51 62.5l-29 -165h-61l44 248h57
q-2 -55 35 -91.5t112 -36.5q74 0 112.5 39t38.5 95q0 45 -35 70t-100 25h-50q-64 2 -105.5 30.5t-41.5 83.5q0 14 3 29q12 73 70.5 105.5t136.5 32.5h131l23 132h-430l9 54h711l-10 -54h-218z" />
    <glyph glyph-name="dvNY" horiz-adv-x="553" 
d="M726 740l-10 -54h-690l10 54h690zM467 516q48 -51 48 -132l-1 -20h145l-10 -55h-144q-24 -91 -92.5 -150.5t-167.5 -59.5q-63 0 -105.5 23.5t-63 61.5t-20.5 83h61q4 -47 38 -80t99 -33q79 0 131 51.5t66 128.5q4 28 4 40q0 61 -35 99.5t-103 38.5q-66 0 -112 -34
t-65 -80h-61q24 72 88.5 120.5t159.5 48.5q92 0 140 -51z" />
    <glyph glyph-name="dvTT" horiz-adv-x="648" 
d="M212.5 452.5q-73.5 -52.5 -91.5 -152.5q-4 -26 -4 -38q0 -70 48 -113.5t127 -43.5q91 0 154.5 56.5t78.5 146.5h62q-13 -77 -54.5 -135.5t-105 -91t-142.5 -32.5q-67 0 -119.5 26t-82 72.5t-29.5 107.5q0 26 4 47q22 126 112.5 192t221.5 66h32l22 126h-423l9 54h710
l-10 -54h-223l-32 -181h-91q-100 0 -173.5 -52.5zM299 -37l88 -193h-66l-86 193h64z" />
    <glyph glyph-name="dvTTH" horiz-adv-x="673" 
d="M421 686l-25 -135q86 -9 140 -65t54 -142q0 -26 -4 -47q-13 -73 -57 -128.5t-109 -86t-140 -30.5q-65 0 -116 26t-80 73t-29 109q0 26 4 47q12 69 51.5 122.5t97.5 85t125 37.5l25 134h-336l10 54h735l-10 -54h-336zM526 339q0 71 -46 115t-123 44q-56 0 -106.5 -24.5
t-84.5 -68.5t-44 -100q-3 -19 -3 -38q0 -71 46 -116t122 -45q56 0 106.5 24.5t84.5 68.5t44 100q4 19 4 40zM297 -34l88 -193h-66l-86 193h64z" />
    <glyph glyph-name="dvDD" horiz-adv-x="578" 
d="M216 485.5q-43 -20.5 -52 -73.5q-2 -14 -2 -18q0 -38 29.5 -56t75.5 -18h45q76 0 127 -33t51 -101q0 -17 -3 -35q-13 -74 -73.5 -119t-160.5 -45t-156.5 45t-56.5 117q0 16 3 31h64q-2 -9 -2 -26q0 -53 39 -85t114 -32q70 0 114.5 33t53.5 83q2 9 2 26q0 51 -38 72.5
t-97 21.5h-41q-64 0 -109 28t-45 86q0 13 3 28q12 73 69.5 105.5t133.5 32.5h127l23 133h-426l9 54h635l-10 -54h-146l-32 -180h-168q-57 0 -100 -20.5zM268 -99l87 -193h-66l-85 193h64z" />
    <glyph glyph-name="dvDDH" horiz-adv-x="636" 
d="M279 490q-61 -26 -103 -78t-55 -127q-4 -21 -4 -45q0 -81 53.5 -130t144.5 -49q78 0 135 40.5t68 104.5q2 16 2 24q0 40 -25.5 65.5t-67.5 25.5q-44 0 -77.5 -27t-40.5 -71q-2 -7 -2 -21h-49q0 16 3 28q11 64 59.5 101t116.5 37q63 0 101.5 -37t38.5 -96q0 -14 -3 -31
q-10 -56 -46 -99.5t-93 -67.5t-127 -24q-74 0 -131.5 28t-89.5 79t-32 119q0 27 4 50q16 90 65.5 151.5t122 91.5t156.5 30h45l22 124h-445l10 54h695l-10 -54h-190l-29 -170h-90q-71 0 -132 -26zM306 -73l87 -193h-66l-85 193h64z" />
    <glyph glyph-name="dvNN" horiz-adv-x="573" 
d="M643 686h-129l-52 -298q-16 -87 -71 -140.5t-139 -53.5q-74 0 -116.5 41t-42.5 110q0 23 4 43l53 298h-124l10 54h617zM452 686h-240l-53 -304q-3 -16 -3 -32q0 -46 26 -74t73 -28q56 0 94 37t49 97z" />
    <glyph glyph-name="dvT" horiz-adv-x="395" 
d="M36 740h571l-9 -54h-572zM109.5 53q-61.5 51 -61.5 146q0 21 5 53q22 125 109.5 186t219.5 61h183l-10 -55h-179q-105 0 -173 -49t-86 -146q-4 -21 -4 -46q0 -72 44 -110.5t130 -38.5h22l-9 -52h-26q-103 0 -164.5 51z" />
    <glyph glyph-name="dvTH" horiz-adv-x="479" 
d="M634 349q-12 -72 -57.5 -128t-111 -87t-138.5 -31q-116 0 -180.5 59t-64.5 158q0 48 15 100h101q211 0 237 151q2 9 2 26q0 43 -26 70t-73 27q-71 0 -111.5 -48.5t-40.5 -125.5h-58q1 65 27.5 117t76 82t115.5 30q70 0 110.5 -39.5t40.5 -104.5q0 -16 -3 -36
q-17 -100 -94.5 -148.5t-189.5 -48.5q-48 0 -64 1q-5 -28 -5 -49q0 -79 51 -122.5t140 -43.5q56 0 109 24t89.5 68t46.5 99h56z" />
    <glyph glyph-name="dvD" horiz-adv-x="608" 
d="M694 686h-151l-31 -173h-140q-90 0 -156 -45.5t-82 -132.5q-3 -19 -3 -37q0 -63 39 -100.5t106 -37.5q38 0 76.5 16t68 49.5t37.5 82.5h58l-55 -319h-63l36 206q-27 -40 -75.5 -63.5t-105.5 -23.5q-84 0 -136 49t-52 133q0 21 5 49q20 114 105 172t201 58h81l22 117h-452
l10 54h667zM447 -97l87 -193h-66l-85 193h64z" />
    <glyph glyph-name="dvDH" horiz-adv-x="436" 
d="M128 140q-55 37 -55 106q0 16 3 32q11 63 54 99.5t95 43.5v3q-45 10 -74.5 43t-29.5 87q0 17 3 35q12 71 64.5 115.5t126.5 44.5q66 0 103 -33.5t37 -92.5q0 -28 -9 -61h-50q7 24 7 47q0 40 -24 63t-69 23q-38 0 -68.5 -19.5t-48 -52t-17.5 -70.5q0 -49 34 -76t98 -27h63
l-9 -52h-54q-81 0 -125 -39t-44 -100q0 -51 41 -76.5t105 -25.5q96 0 162 48.5t80 126.5h56q-12 -68 -53 -119.5t-106.5 -80.5t-150.5 -29q-90 0 -145 37z" />
    <glyph glyph-name="dvN" horiz-adv-x="519" 
d="M721 740l-9 -54h-686l10 54h685zM137.5 456.5q64.5 49.5 156.5 49.5h386l-9 -53h-268q44 -41 44 -107q0 -17 -3 -35q-14 -81 -75.5 -131t-143.5 -50q-77 0 -124 43t-47 112q0 17 3 35q16 87 80.5 136.5zM363 422.5q-32 29.5 -84 29.5q-62 0 -107.5 -37.5t-55.5 -97.5
q-2 -9 -2 -26q0 -48 32 -77t86 -29q44 0 81.5 22t59.5 59t22 80q0 47 -32 76.5z" />
    <glyph glyph-name="dvP" horiz-adv-x="385" 
d="M167 452q-5 -32 -5 -52q0 -66 34.5 -102t101.5 -36q73 0 122.5 46.5t62.5 115.5h53q-16 -96 -80.5 -156.5t-164.5 -60.5q-92 0 -142.5 50.5t-50.5 139.5q0 28 6 61l41 228h-119l10 54h557l-10 -54h-374z" />
    <glyph glyph-name="dvPH" horiz-adv-x="747" 
d="M574 686l-41 -234q31 52 83 83t121 31q79 0 126.5 -47.5t47.5 -128.5q0 -21 -5 -51h-64q3 20 3 36q0 63 -37.5 99.5t-97.5 36.5q-56 0 -98 -26.5t-67 -68t-34 -87.5l-57 -329h-64l52 299q-30 -44 -75 -68t-101 -24q-83 0 -126 46t-43 129q0 31 6 67l42 237h-119l10 54
h941l-10 -54h-393zM510 686h-301l-42 -237q-6 -31 -6 -58q0 -62 31.5 -95.5t95.5 -33.5q67 0 113 42.5t61 108.5z" />
    <glyph glyph-name="dvB" horiz-adv-x="429" 
d="M635 740l-10 -54h-599l10 54h599zM472.5 548.5q47.5 -27.5 70 -72.5t22.5 -97q0 -21 -3 -41q-11 -65 -48.5 -119t-98 -86.5t-135.5 -32.5q-63 0 -112 24t-76.5 68t-27.5 102q0 23 4 43q12 71 52.5 125t101.5 84t132 30t118.5 -27.5zM514 373q0 66 -41.5 111.5
t-121.5 45.5t-143 -49l243 -262q24 25 39.5 56t20.5 62q3 18 3 36zM119 298q0 -70 47 -111t119 -41q81 0 143 50l-245 262q-48 -51 -61 -123q-3 -19 -3 -37z" />
    <glyph glyph-name="dvBH" horiz-adv-x="511" 
d="M630 398h-196l-15 -85q-17 -98 -70 -150t-135 -52q-70 0 -111 37t-41 99q0 16 3 34q15 79 74.5 125t140.5 46h103l17 99q5 30 5 50q0 92 -82 92q-45 0 -78 -30.5t-43 -84.5q-3 -18 -3 -40h-63q-1 20 2 42q14 77 65 123t126 46q69 0 102.5 -37.5t33.5 -105.5q0 -29 -6 -64
l-16 -90h196zM373 398h-100q-56 0 -97 -31.5t-51 -84.5q-2 -16 -2 -24q0 -42 26.5 -67t70.5 -25q53 0 89.5 38t48.5 106z" />
    <glyph glyph-name="dvM" horiz-adv-x="507" 
d="M454 686l-41 -234h223l-9 -54h-224l-15 -85q-17 -98 -70 -150t-135 -52q-69 0 -110 37t-41 99q0 16 3 34q13 79 72.5 125t141.5 46h103l41 234h-367l10 54h651l-10 -54h-223zM342 398h-101q-63 0 -105.5 -38.5t-42.5 -102.5q0 -42 26.5 -66.5t70.5 -24.5q53 0 89 38
t48 106z" />
    <glyph glyph-name="dvY" horiz-adv-x="458" 
d="M140 396q-5 -32 -5 -53q0 -80 49.5 -124.5t135.5 -44.5q57 0 108 24t85 67t43 99h59q-12 -70 -52.5 -125.5t-105.5 -87.5t-145 -32q-111 0 -175.5 58.5t-64.5 160.5q0 30 6 63q8 36 10 44h16q89 0 145 37.5t72 128.5l13 75h-307l9 54h645l-10 -54h-274l-15 -84
q-17 -99 -78.5 -146t-161.5 -49q-2 -8 -2 -11z" />
    <glyph glyph-name="dvR" horiz-adv-x="536" 
d="M622 686h-129l-18 -106q-20 -113 -87 -172t-177 -59h-63l-25 -146q-5 -25 -5 -43q0 -52 28.5 -83t82.5 -31q58 0 97 39t51 106l2 16h62l-2 -14q-16 -94 -72 -148t-142 -54q-80 0 -125 44.5t-45 118.5q0 30 5 52l34 196h107q88 0 141 44.5t69 133.5l19 106h-403l10 54h594
zM226 -97l87 -193h-66l-85 193h64z" />
    <glyph glyph-name="dvL" horiz-adv-x="678" 
d="M29 740h856l-9 -54h-856zM105.5 130.5q-51.5 51.5 -51.5 136.5q0 27 6 57q18 104 81.5 164t155.5 60q75 0 111 -45t39 -108h2q26 64 77 108.5t129 44.5q76 0 118.5 -47.5t42.5 -127.5q0 -28 -4 -52h-65q4 20 4 44q0 57 -28.5 91.5t-84.5 34.5q-71 0 -118 -54t-63 -146
l-2 -13h-55l2 13q7 42 7 67q0 63 -28 98t-84 35q-70 0 -115.5 -47t-58.5 -123q-4 -20 -4 -44q0 -65 37 -103t108 -38q9 0 29 2l-10 -57q-22 -2 -30 -2q-96 0 -147.5 51.5z" />
    <glyph glyph-name="dvV" horiz-adv-x="412" 
d="M36 740h594l-10 -54h-594zM123 155.5q-58 51.5 -58 138.5q0 25 4 48q12 68 51.5 120t99.5 80t131 28t118.5 -27.5t70 -72t22.5 -96.5q0 -13 -4 -41q-10 -58 -45.5 -110.5t-95.5 -85.5t-140 -33q-96 0 -154 51.5zM390 183q46 27 72.5 68.5t34.5 84.5q3 18 3 37
q0 62 -38 104t-115 42q-51 0 -97 -22t-78 -63t-42 -95q-3 -19 -3 -37q0 -68 43 -107t114 -39q60 0 106 27z" />
    <glyph glyph-name="dvSH" horiz-adv-x="534" 
d="M492 705q48 -44 48 -120q0 -25 -4 -46q-19 -102 -96 -156t-184 -54h-103l-21 -120q-4 -21 -4 -44q0 -55 29 -86.5t86 -31.5q63 0 106 43.5t55 117.5h62q-14 -98 -72 -157t-154 -59q-86 0 -131.5 44.5t-45.5 121.5q0 22 5 54l30 171h148q86 0 149.5 42t77.5 120q3 17 3 33
q0 53 -32 84t-84 31q-50 0 -88.5 -25.5t-59 -69t-20.5 -98.5h-63q2 73 32.5 129.5t83.5 88t121 31.5q78 0 126 -44z" />
    <glyph glyph-name="dvSS" horiz-adv-x="388" 
d="M207 686l322 -314q-21 -68 -81 -118.5t-155 -50.5q-91 0 -143 51.5t-52 140.5q0 32 5 57l42 234h-119l10 54h559l-10 -54h-378zM197 634l-32 -183q-4 -23 -4 -49q0 -68 36 -106t100 -38t107 31.5t65 75.5z" />
    <glyph glyph-name="dvS" horiz-adv-x="528" 
d="M426.5 485q-28.5 -43 -66.5 -69h282l-10 -53h-482l-28 -160q-4 -19 -4 -41q0 -54 28.5 -85t84.5 -31q61 0 100 43.5t49 112.5h62q-12 -94 -69 -152.5t-148 -58.5q-81 0 -125.5 46t-44.5 123q0 20 5 50l35 201h98q86 0 140.5 47.5t69.5 129.5l18 98h-394l9 54h663l-10 -54
h-205l-18 -98q-11 -60 -39.5 -103z" />
    <glyph glyph-name="dvH" horiz-adv-x="586" 
d="M690 740l-10 -54h-145l-22 -129l-9 -48h-186q-52 0 -89 -21t-45 -68q-2 -12 -2 -17q0 -28 18.5 -48t49.5 -29q29 6 59 6q64 0 107 -23.5t63 -60t20 -75.5h-61q-4 42 -38 74.5t-100 32.5q-51 0 -92.5 -22.5t-67.5 -60t-34 -81.5q-3 -18 -3 -35q0 -58 35.5 -93.5
t103.5 -35.5q63 0 109.5 32t65.5 74h62q-14 -42 -47 -78.5t-83 -59t-111 -22.5q-94 0 -146 50t-52 129q0 23 4 42q11 63 49.5 112.5t97.5 75.5q-31 15 -50.5 40.5t-19.5 61.5q0 6 2 22q12 63 62 94.5t123 31.5h143l23 129h-438l10 54h644zM247 -187l88 -193h-66l-86 193h64z
" />
    <glyph glyph-name="dvLL" horiz-adv-x="999" 
d="M27 740h1065l-9 -54h-1065zM106.5 155q-52.5 49 -52.5 130q0 24 4 44q12 68 49.5 120t93 80t117.5 28q79 0 125 -40t58 -104h2q34 64 92 104t137 40q84 0 136 -49t52 -132q0 -24 -4 -47q-11 -65 -48.5 -116t-93 -79t-118.5 -28q-77 0 -125.5 41.5t-55.5 104.5h-3
q-28 -63 -89.5 -104.5t-138.5 -41.5q-85 0 -137.5 49zM387 209q54 47 68 120q3 20 3 38q0 61 -37 98t-102 37q-74 0 -130 -47.5t-69 -125.5q-3 -16 -3 -33q0 -61 39 -97.5t103 -36.5q74 0 128 47zM785 208.5q56 46.5 69 120.5q3 20 3 36q0 63 -38.5 100t-101.5 37
q-75 0 -129.5 -48t-68.5 -125q-3 -18 -3 -34q0 -60 37.5 -96.5t102.5 -36.5q73 0 129 46.5z" />
    <glyph glyph-name="dvK_SS" horiz-adv-x="522" 
d="M317.5 379.5q-7.5 -3.5 -15.5 -7.5q-58 -26 -92 -46t-60.5 -49.5t-33.5 -72.5q-2 -16 -2 -24q0 -43 27.5 -69.5t77.5 -26.5q59 0 100 37.5t51 93.5h55l-47 -267h-60l29 164q-16 -29 -57 -55.5t-99 -26.5q-67 0 -106 35.5t-39 94.5q0 17 3 33q10 54 42.5 92.5t72.5 62
t108 55.5q-58 11 -95.5 48.5t-37.5 96.5q0 16 3 32q9 53 41 91.5t77.5 58.5t96.5 20q69 0 114 -36.5t45 -99.5q0 -14 -3 -31q-9 -48 -36 -83.5t-69 -64.5h239l-9 -49h-307q-6 -3 -13.5 -6.5zM235 468q38 -30 102 -33q51 28 81.5 60t38.5 78q2 16 2 23q0 45 -31 72t-80 27
q-38 0 -73 -17.5t-56.5 -51t-21.5 -77.5q0 -51 38 -81z" />
    <glyph glyph-name="dvJ_NY" horiz-adv-x="532" 
d="M768 740l-10 -54h-731l10 54h731zM272 531h458l-9 -53h-311q40 -19 61.5 -53.5t21.5 -83.5q0 -17 -3 -37q-13 -83 -72.5 -134.5t-142.5 -51.5q-66 0 -110 27.5t-58 69.5l-29 -171h-62l47 270h60q-5 -68 35.5 -105.5t103.5 -37.5q67 0 113.5 41.5t58.5 105.5q3 17 3 31
q0 61 -44 95t-116 34h-14z" />
    <glyph glyph-name="dvKx" horiz-adv-x="748" 
d="M593 686l-41 -233q31 51 80.5 82t116.5 31q79 0 128.5 -49t49.5 -129q0 -21 -5 -49h-64q3 20 3 37q0 62 -37.5 98.5t-97.5 36.5q-77 0 -127 -49t-66 -118l-61 -344h-61l38 218q-31 -51 -83 -81.5t-120 -30.5q-81 0 -131.5 49t-50.5 133q0 22 5 52q12 68 49 119.5t90.5 79
t115.5 27.5q70 0 111.5 -31t55.5 -82l41 233h-506l10 54h958l-10 -54h-391zM472 348q1 8 1 24q0 59 -34.5 99t-106.5 40q-46 0 -88 -21t-72 -60t-39 -91q-3 -21 -3 -39q0 -65 38.5 -102t102.5 -37q56 0 97.5 25.5t66.5 63.5t34 79zM171.5 -62q-11.5 11 -11.5 28q0 22 17 38
t39 16q17 0 28 -10.5t11 -27.5q0 -22 -16.5 -38.5t-38.5 -16.5q-17 0 -28.5 11z" />
    <glyph glyph-name="dvKHx" horiz-adv-x="676" 
d="M127 229q-4 -28 -4 -39q0 -63 40 -99.5t113 -36.5q62 0 110 31.5t78 80.5q-38 20 -58 55t-20 83q0 23 4 43q16 93 84 148t164 55q84 0 132.5 -42t48.5 -117q0 -23 -4 -44q-16 -94 -85 -149t-163 -55q-25 0 -52 5q-36 -66 -98.5 -108t-143.5 -42q-99 0 -156 49.5
t-57 136.5q0 21 5 51l28 162h38q66 0 111.5 34t60.5 122l23 133h-299l9 54h848l-9 -54h-485l-24 -140q-19 -106 -76 -151.5t-138 -45.5h-4zM444 314q0 -56 35 -88.5t97 -32.5q70 0 120 42t62 112q3 18 3 34q0 56 -35 88t-96 32q-71 0 -120.5 -42t-62.5 -112q-3 -16 -3 -33z
M188.5 -169q-11.5 11 -11.5 28q0 22 17 38t39 16q17 0 28 -10.5t11 -27.5q0 -22 -16.5 -38.5t-38.5 -16.5q-17 0 -28.5 11z" />
    <glyph glyph-name="dvGx" horiz-adv-x="483" 
d="M547 686h-131l-50 -282q-13 -73 -57.5 -119t-121.5 -46q-65 0 -99.5 35t-34.5 92q0 16 3 34q4 20 7 31h62l-6 -32q-3 -13 -3 -28q0 -34 18 -55.5t57 -21.5q50 0 76 31t35 77l50 284h-326l10 54h520zM128.5 65q-11.5 11 -11.5 28q0 22 17 38t39 16q17 0 28 -10.5t11 -27.5
q0 -22 -16.5 -38.5t-38.5 -16.5q-17 0 -28.5 11z" />
    <glyph glyph-name="dvJx" horiz-adv-x="557" 
d="M757 740l-10 -54h-720l10 54h720zM705 447h-241l-20 -112q-15 -88 -73.5 -142t-145.5 -54q-71 1 -112 43t-41 111q0 24 4 44l29 165h64l-29 -166q-3 -19 -3 -36q0 -48 25.5 -76t71.5 -28q57 0 97 38.5t51 101.5l30 166h303zM168.5 -28q-11.5 11 -11.5 28q0 22 17 38
t39 16q17 0 28 -10.5t11 -27.5q0 -22 -16.5 -38.5t-38.5 -16.5q-17 0 -28.5 11z" />
    <glyph glyph-name="dvPHx" horiz-adv-x="747" 
d="M574 686l-41 -234q31 52 83 83t121 31q79 0 126.5 -47.5t47.5 -128.5q0 -21 -5 -51h-64q3 20 3 36q0 63 -37.5 99.5t-97.5 36.5q-56 0 -98 -26.5t-67 -68t-34 -87.5l-57 -329h-64l52 299q-30 -44 -75 -68t-101 -24q-83 0 -126 46t-43 129q0 31 6 67l42 237h-119l10 54
h941l-10 -54h-393zM510 686h-301l-42 -237q-6 -31 -6 -58q0 -62 31.5 -95.5t95.5 -33.5q67 0 113 42.5t61 108.5zM180.5 41q-11.5 11 -11.5 28q0 22 17 38t39 16q17 0 28 -10.5t11 -27.5q0 -22 -16.5 -38.5t-38.5 -16.5q-17 0 -28.5 11z" />
    <glyph glyph-name="dvReph" horiz-adv-x="0" 
d="M-160 817q15 87 63 136.5t128 49.5q61 0 94.5 -32t33.5 -87q0 -21 -4 -40h-57q3 14 3 26q0 36 -21 57.5t-57 21.5q-100 0 -123 -132l-16 -90h-60z" />
    <glyph glyph-name="dvEyelash" horiz-adv-x="278" 
d="M3 740h374l-9 -54h-375zM291 384.5q-29 -5.5 -61 -5.5q-84 0 -142.5 37.5t-58.5 117.5q0 17 3 36h61q-2 -10 -2 -27q0 -60 45.5 -87.5t111.5 -27.5q38 0 76 10l14 -39q-18 -9 -47 -14.5z" />
    <glyph glyph-name="dvRashtrasign" horiz-adv-x="0" 
d="M-87 -97l-119 154l-173 -154h-73l204 179h85l141 -179h-65z" />
    <glyph glyph-name="dvK_RA" horiz-adv-x="1002" 
d="M593 686l-41 -233q31 51 80.5 82t116.5 31q79 0 128.5 -49t49.5 -129q0 -22 -5 -50q-13 -72 -48.5 -123.5t-87.5 -78.5t-113 -27q-32 0 -60 7l9 52q16 -5 46 -5q69 0 122.5 47.5t67.5 128.5q3 20 3 37q0 62 -37.5 98.5t-97.5 36.5q-77 0 -127 -49t-66 -118l-61 -344h-61
l39 222q-27 -41 -62 -66l-247 -202h-72l195 158q-6 -1 -19 -1q-82 0 -131.5 47.5t-49.5 129.5q0 21 5 51q12 68 49 119.5t90.5 79.5t115.5 28q70 0 111.5 -31t55.5 -82l41 233h-506l10 54h1060l-9 -54h-494zM472 346q2 18 2 26q0 58 -35 98.5t-107 40.5q-46 0 -88 -21
t-72 -60t-39 -91q-3 -21 -3 -40q0 -65 38.5 -101.5t101.5 -36.5q37 0 71 13l13 10l5 -2q44 22 72.5 63t37.5 85z" />
    <glyph glyph-name="dvKH_RA" horiz-adv-x="926" 
d="M1020 740l-9 -54h-141l-120 -686h-64l42 236q-28 -42 -73 -67.5t-103 -25.5q-23 0 -39 4q-31 -50 -77 -87l-246 -206h-72v4l174 143q-9 -1 -27 -1q-96 0 -150.5 48t-54.5 134q0 23 5 53l28 162h38q145 0 172 156l23 133h-299l9 54h984zM807 686h-417l-24 -140
q-19 -106 -76 -151.5t-138 -45.5h-4l-21 -120q-4 -28 -4 -39q0 -63 40 -99.5t113 -36.5q60 0 108.5 31.5t79.5 80.5q-36 21 -56 58.5t-20 87.5q0 23 4 43q10 59 42.5 103.5t80 68.5t102.5 24q61 0 98.5 -26t51.5 -68zM659 217q37 23 59.5 58t28.5 72q3 15 3 31
q0 52 -31.5 87.5t-96.5 35.5q-64 0 -113 -41t-61 -110q-3 -18 -3 -35q0 -57 35.5 -89t92.5 -32q49 0 86 23z" />
    <glyph glyph-name="dvG_RA" horiz-adv-x="727" 
d="M821 740l-10 -54h-140l-120 -686h-63l47 267l-335 -287h-78l424 355l61 351h-191l-41 -233q-13 -73 -57.5 -119t-121.5 -46q-65 0 -99.5 35t-34.5 92q0 12 4 38l5 27h62l-6 -31q-3 -13 -3 -28q0 -34 18 -56t58 -22q50 0 76 31t34 77l42 235h-325l9 54h785z" />
    <glyph glyph-name="dvGH_RA" horiz-adv-x="714" 
d="M798 686h-140l-121 -686h-64l41 235q-28 -41 -71 -72l-264 -218h-73l207 167q-22 -3 -46 -3q-88 0 -142.5 39t-54.5 110q0 16 3 34q11 64 59 105t109 49v2q-45 7 -72 35t-27 79q0 21 4 40l16 84h-136l10 54h772zM594 686h-369l-15 -81q-3 -18 -3 -33q0 -49 31.5 -73.5
t101.5 -24.5h45l-9 -53h-48q-94 0 -143 -43t-49 -108q0 -53 42 -80.5t111 -27.5q55 0 106.5 24t89 66.5t50.5 97.5z" />
    <glyph glyph-name="dvNG_RA" horiz-adv-x="650" 
d="M744 740l-10 -54h-212l-23 -133l-4 -19v-2l-5 -26h-174q-57 0 -100 -20.5t-52 -73.5q-2 -14 -2 -18q0 -38 29.5 -56t75.5 -18h45q76 0 127 -33t51 -101q0 -17 -3 -35q-13 -74 -73.5 -119t-160.5 -45t-156.5 45t-56.5 117q0 16 3 31h64q-2 -9 -2 -26q0 -53 39 -85t114 -32
q70 0 114.5 33t53.5 83q2 9 2 26q0 51 -38 72.5t-97 21.5h-41q-64 0 -109 28t-45 86q0 13 3 28q12 73 69.5 105.5t133.5 32.5h133l23 133h-432l9 54h707zM622.5 433q10.5 -10 10.5 -25q0 -21 -16 -36t-36 -15q-17 0 -27 9.5t-10 24.5q0 21 15.5 36.5t36.5 15.5
q16 0 26.5 -10zM370 -168l-119 154l-173 -154h-73l204 179h85l141 -179h-65z" />
    <glyph glyph-name="dvC_RA" horiz-adv-x="730" 
d="M814 686h-140l-121 -686h-64l39 220q-26 -38 -67 -66l-241 -200h-72l190 154q-9 -1 -27 -1q-79 0 -130.5 44t-51.5 119q0 18 3 37q10 58 45 103t88 70h-196l9 52h361l-9 -52h-33q-79 0 -134.5 -46.5t-68.5 -117.5q-3 -16 -3 -31q0 -60 41 -93.5t104 -33.5q45 0 89 21l6 5
l2 -1q43 23 73 62t42 86l62 355h-584l10 54h788z" />
    <glyph glyph-name="dvCH_RA" horiz-adv-x="813" 
d="M671 686l-23 -134q53 -9 85.5 -48t32.5 -105q0 -21 -5 -53q-22 -126 -113 -207.5t-225 -102.5l128 -162h-68l-119 154l-174 -154h-68l177 156q-113 7 -181 55.5t-68 129.5q0 18 3 36q13 70 61.5 112.5t114.5 52.5v2q-45 7 -71.5 34.5t-26.5 79.5q0 20 4 40l20 114h-130
l9 54h873l-9 -54h-227zM611 686h-392l-20 -112q-3 -19 -3 -35q0 -47 30 -71t95 -24h23l-9 -53h-22q-63 0 -108 -23t-67.5 -60.5t-22.5 -82.5q0 -68 62.5 -104.5t166.5 -36.5q91 0 167.5 32t127.5 91.5t65 140.5q4 20 4 42q0 56 -28.5 85.5t-70.5 29.5q-46 0 -86.5 -31
t-52.5 -94q-3 -21 -3 -42q0 -30 4 -55h-55q-4 34 -4 51q0 24 5 51q13 76 60.5 117.5t110.5 49.5z" />
    <glyph glyph-name="dvJ_RA" horiz-adv-x="835" 
d="M920 686h-140l-121 -686h-60l46 261l-331 -291h-74l415 358l21 123h-214l-8 -46q-15 -88 -72 -142t-140 -54q-75 0 -117 41.5t-42 111.5q0 23 4 43l18 99h64l-17 -99q-3 -19 -3 -37q0 -47 25 -74.5t72 -27.5q57 0 97 38t51 101l17 99h275l32 182h-691l9 54h893z" />
    <glyph glyph-name="dvJH_RA" horiz-adv-x="908" 
d="M992 686h-141l-121 -686h-61l26 148l-228 -253h-67l308 331l3 16l1 10l3 19l-268 1q44 -33 44 -93q0 -15 -3 -33q-12 -66 -63.5 -108.5t-136.5 -42.5q-74 0 -114 31.5t-51 62.5l-29 -165h-61l44 248h57q-2 -55 35 -91.5t112 -36.5q74 0 112.5 39t38.5 95q0 45 -35 70
t-100 25h-50q-64 2 -105.5 30.5t-41.5 83.5q0 14 3 29q12 73 70.5 105.5t136.5 32.5h131l23 132h-430l9 54h959zM789 686h-263l-23 -132l-2 -9l-2 -13l-5 -26h-174q-56 0 -100.5 -20.5t-53.5 -73.5q-2 -14 -2 -18q0 -38 30 -56t77 -18h45h408z" />
    <glyph glyph-name="dvNY_RA" horiz-adv-x="851" 
d="M936 686h-141l-121 -686h-62l34 191l-304 -268h-69l385 336l12 70h-162q-21 -90 -87 -147.5t-167 -57.5q-64 0 -108.5 24t-66 62.5t-18.5 81.5h61q-1 -28 14.5 -54t46.5 -42.5t76 -16.5q79 0 130.5 48.5t64.5 120.5q3 18 3 34q0 58 -34.5 94t-103.5 36
q-67 0 -112.5 -33.5t-66.5 -80.5h-61q24 71 87 120t158 49q96 0 145.5 -51.5t46.5 -131.5h161l54 302h-704l9 54h909z" />
    <glyph glyph-name="dvTT_RA" horiz-adv-x="648" 
d="M212.5 452.5q-73.5 -52.5 -91.5 -152.5q-4 -26 -4 -38q0 -70 48 -113.5t127 -43.5q91 0 154.5 56.5t78.5 146.5h62q-13 -77 -54.5 -135.5t-105 -91t-142.5 -32.5q-67 0 -119.5 26t-82 72.5t-29.5 107.5q0 26 4 47q22 126 112.5 192t221.5 66h32l22 126h-423l9 54h710
l-10 -54h-223l-32 -181h-91q-100 0 -173.5 -52.5zM398 -103l-119 154l-173 -154h-73l204 179h85l141 -179h-65z" />
    <glyph glyph-name="dvTTH_RA" horiz-adv-x="674" 
d="M424 686l-25 -135q86 -9 140 -65t54 -142q0 -26 -4 -47q-13 -73 -57 -128.5t-109 -86t-140 -30.5q-65 0 -116 26t-80 73t-29 109q0 26 4 47q12 69 51.5 122.5t97.5 85t125 37.5l25 134h-336l10 54h735l-10 -54h-336zM529 339q0 71 -46 115t-123 44q-56 0 -106.5 -24.5
t-84.5 -68.5t-44 -100q-3 -19 -3 -38q0 -71 46 -116t122 -45q56 0 106.5 24.5t84.5 68.5t44 100q4 19 4 40zM404 -105l-119 154l-173 -154h-73l204 179h85l141 -179h-65z" />
    <glyph glyph-name="dvDD_RA" horiz-adv-x="578" 
d="M216 485.5q-43 -20.5 -52 -73.5q-2 -14 -2 -18q0 -38 29.5 -56t75.5 -18h45q76 0 127 -33t51 -101q0 -17 -3 -35q-13 -74 -73.5 -119t-160.5 -45t-156.5 45t-56.5 117q0 16 3 31h64q-2 -9 -2 -26q0 -53 39 -85t114 -32q70 0 114.5 33t53.5 83q2 9 2 26q0 51 -38 72.5
t-97 21.5h-41q-64 0 -109 28t-45 86q0 13 3 28q12 73 69.5 105.5t133.5 32.5h127l23 133h-426l9 54h635l-10 -54h-146l-32 -180h-168q-57 0 -100 -20.5zM363 -168l-119 154l-173 -154h-73l204 179h85l141 -179h-65z" />
    <glyph glyph-name="dvDDH_RA" horiz-adv-x="636" 
d="M279 490q-61 -26 -103 -78t-55 -127q-4 -21 -4 -45q0 -81 53.5 -130t144.5 -49q78 0 135 40.5t68 104.5q2 16 2 24q0 40 -25.5 65.5t-67.5 25.5q-44 0 -77.5 -27t-40.5 -71q-2 -7 -2 -21h-49q0 16 3 28q11 64 59.5 101t116.5 37q63 0 101.5 -37t38.5 -96q0 -14 -3 -31
q-10 -56 -46 -99.5t-93 -67.5t-127 -24q-74 0 -131.5 28t-89.5 79t-32 119q0 27 4 50q16 90 65.5 151.5t122 91.5t156.5 30h45l22 124h-445l10 54h695l-10 -54h-190l-29 -170h-90q-71 0 -132 -26zM409 -143l-119 154l-173 -154h-73l204 179h85l141 -179h-65z" />
    <glyph glyph-name="dvNN_RA" horiz-adv-x="845" 
d="M930 686h-141l-120 -686h-61l47 267l-338 -296h-76l425 369l61 346h-212l-39 -226q-16 -87 -70.5 -140.5t-140.5 -53.5q-74 0 -116 42t-42 111q0 22 4 41l40 226h-123l9 54h902zM453 686h-240l-40 -231q-3 -16 -3 -32q0 -47 26 -74.5t73 -27.5q56 0 94 37t49 97z" />
    <glyph glyph-name="dvT_RA" horiz-adv-x="691" 
d="M775 686h-140l-121 -686h-62l52 290l-342 -290h-84v4l435 357q-12 54 -56 88t-112 34q-52 0 -98.5 -22t-78.5 -64.5t-42 -100.5h-64q12 74 52 128t99 82.5t128 28.5q73 0 118.5 -31.5t66.5 -77.5l46 260h-546l10 54h749z" />
    <glyph glyph-name="dvTH_RA" horiz-adv-x="758" 
d="M852 740l-9 -54h-141l-121 -686h-64l43 239q-22 -42 -72 -80h1l-330 -234h-81l1 4l251 175h-16q-109 0 -172 56.5t-63 154.5q0 28 6 58q3 21 11 47h101q91 0 157 33.5t81 117.5q2 9 2 26q0 43 -26 70t-74 27q-70 0 -110.5 -49t-40.5 -125h-58q1 65 27.5 117t75.5 82
t114 30q71 0 112.5 -39t41.5 -104q0 -11 -4 -37q-18 -100 -95 -148.5t-190 -48.5q-47 0 -63 1q-6 -27 -6 -52q0 -76 49.5 -119.5t139.5 -43.5q59 0 112.5 26t91 74t48.5 110l65 372h205z" />
    <glyph glyph-name="dvD_RA" horiz-adv-x="610" 
d="M216 467.5q-66 -45.5 -82 -132.5q-3 -19 -3 -37q0 -63 39 -100.5t106 -37.5q37 0 74 15l4 3l2 -1q38 18 66 51t36 80h58l-55 -319h-63l36 206q-18 -27 -47 -47l-248 -201h-71l200 161h-15q-84 0 -136 49t-52 133q0 21 5 49q20 114 105 172t201 58h81l22 117h-452l10 54
h667l-10 -54h-151l-31 -173h-140q-90 0 -156 -45.5z" />
    <glyph glyph-name="dvDH_RA" horiz-adv-x="708" 
d="M793 686h-139l-121 -686h-64l41 235q-24 -38 -61 -67l-279 -230h-73l212 171q-21 -4 -50 -4q-81 0 -134 38t-53 105q0 14 3 30q12 63 55 99.5t95 43.5v3q-45 10 -74.5 43t-29.5 87q0 17 3 35q12 71 65 115.5t127 44.5q66 0 103 -33.5t37 -92.5q0 -28 -9 -61h-50
q7 22 7 45q0 41 -24.5 64.5t-69.5 23.5q-37 0 -67.5 -19.5t-48.5 -52t-18 -70.5q0 -49 34 -76t98 -27h63l-9 -52h-54q-80 0 -124.5 -38.5t-44.5 -98.5q0 -50 40 -77t103 -27q58 0 110.5 25.5t89.5 71t50 103.5l60 342l7 41h203z" />
    <glyph glyph-name="dvN_RA" horiz-adv-x="810" 
d="M894 686h-140l-122 -686h-58l39 218l-324 -288h-73l405 353l30 170h-249q21 -18 33 -45t12 -61q0 -16 -3 -36q-9 -54 -41 -95t-78.5 -63.5t-99.5 -22.5q-77 0 -124 43t-47 112q0 17 3 35q16 87 80.5 136.5t156.5 49.5h366l32 180h-665l10 54h867zM363 422.5
q-32 29.5 -84 29.5q-62 0 -107.5 -37.5t-55.5 -97.5q-2 -9 -2 -26q0 -48 32 -77t86 -29q44 0 81.5 22t59.5 59t22 80q0 47 -32 76.5z" />
    <glyph glyph-name="dvP_RA" horiz-adv-x="649" 
d="M734 686h-141l-120 -686h-64l53 303q-18 -27 -47 -49l-306 -262h-73l262 219q-8 -1 -25 -1q-85 0 -130 47.5t-45 131.5q0 30 6 63l41 234h-118l9 54h707zM530 686h-322l-41 -234q-5 -32 -5 -53q0 -66 34 -101.5t100 -35.5q48 0 88 22t65.5 59t33.5 81h1z" />
    <glyph glyph-name="dvPH_RA" horiz-adv-x="986" 
d="M574 686l-41 -234q31 52 83 83t121 31q79 0 126.5 -47.5t47.5 -128.5q0 -26 -4 -49q-13 -72 -49.5 -124.5t-89 -80t-112.5 -27.5q-35 0 -61 8l9 51q21 -6 48 -6q70 0 122.5 47.5t67.5 129.5q3 20 3 36q0 63 -37.5 99.5t-97.5 36.5q-56 0 -98 -26.5t-67 -68t-34 -87.5
l-57 -329h-64l53 301q-25 -33 -52 -52l-296 -258h-72l260 220q-6 -1 -18 -1q-83 0 -125.5 45.5t-42.5 127.5q0 30 6 66l42 237h-119l10 54h1044l-10 -54h-496zM510 686h-301l-42 -237q-6 -31 -6 -58q0 -62 31.5 -95.5t95.5 -33.5q67 0 113 42.5t61 108.5z" />
    <glyph glyph-name="dvB_RA" horiz-adv-x="689" 
d="M783 740l-10 -54h-140l-120 -686h-62l38 215q-16 -25 -49 -55l-260 -212h-71l196 156q-22 -2 -35 -2q-59 0 -105.5 23.5t-73 66.5t-26.5 101q0 25 4 46q13 72 53 125.5t99.5 82.5t129.5 29q72 0 118 -33.5t62 -86.5l40 230h-545l10 54h747zM278 519q-37 -13 -67 -37
l243 -261q24 26 39 56.5t20 60.5q3 18 3 37q0 66 -41 111.5t-121 45.5q-39 0 -76 -13zM123 299q0 -71 46.5 -111t119.5 -40q81 0 141 50l-244 261q-49 -52 -60 -122q-3 -19 -3 -38z" />
    <glyph glyph-name="dvBH_RA" horiz-adv-x="800" 
d="M894 740l-10 -54h-141l-121 -686h-59l39 217l-335 -287h-75l418 349l22 122h-199l-12 -68q-16 -97 -69.5 -149t-134.5 -52q-69 0 -110 36.5t-41 98.5q0 15 3 33q14 72 72.5 113t139.5 41h103l17 97q5 28 5 48q0 94 -84 94q-46 0 -78.5 -30t-42.5 -84q-3 -19 -3 -40h-62
q0 22 3 43q13 76 64 121.5t126 45.5q69 0 102 -37.5t33 -105.5q0 -29 -6 -64l-16 -88h199l50 286h203zM375 401h-103q-61 0 -103.5 -34.5t-42.5 -89.5q0 -42 27 -67t71 -25q53 0 90 38.5t48 105.5z" />
    <glyph glyph-name="dvM_RA" horiz-adv-x="771" 
d="M858 686h-141l-121 -686h-59l39 217l-338 -287h-74l419 350l26 144h-201l-15 -84q-17 -97 -70.5 -149t-133.5 -52q-70 0 -111 37t-41 99q0 16 3 32q14 79 73.5 124t141.5 45h104l37 210h-367l9 54h829zM656 686h-202l-37 -210h201zM349 424h-103q-56 0 -96 -31.5
t-50 -84.5q-2 -9 -2 -25q0 -41 26.5 -65.5t70.5 -24.5q54 0 90 37.5t49 106.5z" />
    <glyph glyph-name="dvY_RA" horiz-adv-x="733" 
d="M817 686h-141l-120 -686h-64l41 233q-31 -42 -74 -70l-314 -223h-79l1 5l253 176h-19q-108 0 -168.5 58t-60.5 159q0 30 6 63q8 36 10 44h16q89 0 145 38t72 129l13 74h-307l9 54h791zM612 686h-215l-15 -83q-18 -100 -79 -147t-160 -49l-3 -11q-5 -24 -5 -54
q0 -79 48.5 -123.5t134.5 -44.5q56 0 106 23.5t84.5 66t46.5 97.5z" />
    <glyph glyph-name="dvL_RA" horiz-adv-x="895" 
d="M718 686l-24 -142q58 -11 90.5 -56.5t32.5 -114.5q0 -22 -5 -54q-19 -107 -89.5 -173.5t-181.5 -66.5q-13 0 -39 2l11 57q18 -2 29 -2q83 0 136.5 51t68.5 134q4 20 4 44q0 57 -28.5 91.5t-84.5 34.5q-71 0 -118 -54t-63 -146l-2 -13h-55l2 13q7 42 7 67q0 63 -28 98
t-84 35q-70 0 -115.5 -47t-58.5 -123q-4 -20 -4 -44q0 -65 37 -103t108 -38q9 0 29 2l-10 -57q-22 -2 -30 -2q-96 0 -147.5 51.5t-51.5 136.5q0 27 6 57q18 104 81.5 164t155.5 60q75 0 111 -45t39 -108h2q24 59 69 102t113 50l25 139h-636l9 54h960l-10 -54h-261zM652 -155
l-119 154l-173 -154h-73l204 179h85l141 -179h-65z" />
    <glyph glyph-name="dvV_RA" horiz-adv-x="676" 
d="M770 740l-9 -54h-141l-120 -686h-63l39 220q-28 -43 -66 -68l-243 -196h-72l193 152q-9 -1 -26 -1q-89 0 -143 49.5t-54 135.5q0 22 5 52q12 69 50.5 120t95 78.5t121.5 27.5q74 0 119.5 -31.5t60.5 -84.5l41 232h-532l10 54h734zM388.5 184q45.5 27 72.5 68t35 84
q3 18 3 37q0 61 -38 103t-116 42q-50 0 -95.5 -22t-77 -62.5t-40.5 -94.5q-4 -28 -4 -39q0 -67 42 -105t112 -38q61 0 106.5 27z" />
    <glyph glyph-name="dvSH_RA" horiz-adv-x="791" 
d="M885 740l-9 -54h-141l-121 -686h-63l30 171l-74 44l-273 -219h-77l1 6l306 239l-157 95l-212 -143h-74l1 9l239 162q-115 76 -115 181q0 18 3 37q12 73 70 120t140 47q74 0 117.5 -41t43.5 -102q0 -14 -3 -29q-11 -62 -48 -109t-108 -95l-4 -3l234 -142l90 512h204z
M311 398l16 11q57 37 89.5 74.5t40.5 88.5q2 16 2 23q0 43 -28.5 71.5t-80.5 28.5q-53 0 -94 -35t-49 -83q-2 -10 -2 -28q0 -85 89 -141z" />
    <glyph glyph-name="dvSS_RA" horiz-adv-x="655" 
d="M738 686h-140l-121 -686h-63l52 297q-23 -33 -59 -58l-297 -247h-73l259 211h-16q-85 0 -134 50.5t-49 138.5q0 29 6 60l42 234h-119l10 54h712zM535 686h-328l279 -274l3 15zM401 287.5q44 29.5 68 78.5l-272 268l-32 -183q-5 -28 -5 -49q0 -68 37 -106t103 -38
q57 0 101 29.5z" />
    <glyph glyph-name="dvS_RA" horiz-adv-x="866" 
d="M928 686h-118l-121 -686h-56l43 240l-269 -295h-64l340 363l10 57h-545l-29 -162q-3 -21 -3 -40q0 -54 25 -85.5t75 -31.5q56 0 85 40t39 109h56q-11 -93 -57 -148.5t-129 -55.5q-74 0 -114.5 45t-40.5 120q0 27 4 50l36 205h98q86 0 140.5 47.5t69.5 129.5l18 98h-394
l9 54h902zM749 686h-265l-18 -98q-11 -60 -39.5 -103t-66.5 -69h342z" />
    <glyph glyph-name="dvH_RA" horiz-adv-x="586" 
d="M690 740l-10 -54h-145l-23 -129l-8 -48h-186q-52 0 -89 -21t-45 -68q-2 -12 -2 -17q0 -28 18.5 -48t50.5 -29q28 5 53 5q76 0 123.5 -35t56.5 -87l-141 -120h-62l145 122q-14 30 -46 50t-81 20q-77 0 -130.5 -51.5t-67.5 -127.5q-4 -19 -4 -40q0 -61 37 -99t106 -38
q63 0 109.5 31.5t66.5 73.5h58q-14 -41 -47 -77t-82.5 -58t-109.5 -22q-95 0 -146.5 52t-51.5 134q0 27 4 48q12 67 51.5 119.5t99.5 80.5q-31 14 -51 39.5t-20 61.5q0 15 2 23q11 63 61 94.5t124 31.5h143l23 129h-438l9 54h645z" />
    <glyph glyph-name="dvLL_RA" horiz-adv-x="998" 
d="M797 686l-24 -132q67 -12 107 -59t40 -119q0 -24 -4 -47q-11 -65 -48.5 -116t-93 -79t-118.5 -28q-77 0 -125.5 41.5t-55.5 104.5h-3q-28 -63 -89.5 -104.5t-138.5 -41.5q-85 0 -137.5 49t-52.5 130q0 24 4 44q12 68 49.5 120t93 80t117.5 28q79 0 125 -40t58 -104h2
q32 60 85 99t124 44l23 130h-717l9 54h1065l-9 -54h-286zM458 367q0 61 -37 98t-102 37q-74 0 -130 -47.5t-69 -125.5q-3 -16 -3 -33q0 -61 39 -97.5t103 -36.5q74 0 128 47t68 120q3 20 3 38zM857 365q0 63 -38.5 100t-101.5 37q-75 0 -129.5 -48t-68.5 -125q-3 -18 -3 -34
q0 -60 37.5 -96.5t102.5 -36.5q73 0 129 46.5t69 120.5q3 20 3 36zM779 -49l-119 154l-173 -154h-73l204 179h85l141 -179h-65z" />
    <glyph glyph-name="dvKx_RA" horiz-adv-x="1027" 
d="M618 686l-41 -233q31 51 80.5 82t116.5 31q79 0 128.5 -49t49.5 -129q0 -22 -5 -50q-13 -72 -48.5 -123.5t-87.5 -78.5t-113 -27q-32 0 -60 7l9 52q16 -5 46 -5q69 0 122.5 47.5t67.5 128.5q3 20 3 37q0 62 -37.5 98.5t-97.5 36.5q-77 0 -127 -49t-66 -118l-61 -344h-61
l39 222q-27 -41 -62 -66l-247 -202h-72l195 158q-6 -1 -19 -1q-82 0 -131.5 47.5t-49.5 129.5q0 21 5 51q12 68 49 119.5t90.5 79.5t115.5 28q70 0 111.5 -31t55.5 -82l41 233h-545l10 54h1099l-9 -54h-494zM497 346q2 18 2 26q0 58 -35 98.5t-107 40.5q-46 0 -88 -21
t-72 -60t-39 -91q-3 -21 -3 -40q0 -65 38.5 -101.5t101.5 -36.5q37 0 71 13l13 10l5 -2q44 22 72.5 63t37.5 85zM54.5 98q10.5 -10 10.5 -26q0 -22 -16 -37.5t-37 -15.5q-17 0 -27.5 10t-10.5 26q0 22 16 37.5t37 15.5q17 0 27.5 -10z" />
    <glyph glyph-name="dvKHx_RA" horiz-adv-x="926" 
d="M1020 740l-9 -54h-141l-120 -686h-64l42 236q-28 -42 -73 -67.5t-103 -25.5q-23 0 -39 4q-31 -50 -77 -87l-246 -206h-72v4l174 143q-9 -1 -27 -1q-96 0 -150.5 48t-54.5 134q0 23 5 53l28 162h38q145 0 172 156l23 133h-299l9 54h984zM807 686h-417l-24 -140
q-19 -106 -76 -151.5t-138 -45.5h-4l-21 -120q-4 -28 -4 -39q0 -63 40 -99.5t113 -36.5q60 0 108.5 31.5t79.5 80.5q-36 21 -56 58.5t-20 87.5q0 23 4 43q10 59 42.5 103.5t80 68.5t102.5 24q61 0 98.5 -26t51.5 -68zM659 217q37 23 59.5 58t28.5 72q3 15 3 31
q0 52 -31.5 87.5t-96.5 35.5q-64 0 -113 -41t-61 -110q-3 -18 -3 -35q0 -57 35.5 -89t92.5 -32q49 0 86 23zM-7.11426 -101.266q-10.9912 10.5137 -10.9912 26.7617q0 21.0264 16.248 36.3184t37.2744 15.292q16.248 0 26.7607 -10.0352q10.5137 -10.0361 10.5137 -26.2832
q0 -21.0264 -15.7705 -36.7969q-15.7695 -15.7695 -36.7959 -15.7695q-16.248 0 -27.2393 10.5127z" />
    <glyph glyph-name="dvGx_RA" horiz-adv-x="727" 
d="M821 740l-10 -54h-140l-120 -686h-63l47 267l-335 -287h-78l424 355l61 351h-191l-41 -233q-13 -73 -57.5 -119t-121.5 -46q-65 0 -99.5 35t-34.5 92q0 12 4 38l5 27h62l-6 -31q-3 -13 -3 -28q0 -34 18 -56t58 -22q50 0 76 31t34 77l42 235h-325l9 54h785z
M16.8857 80.7344q-10.9912 10.5137 -10.9912 26.7617q0 21.0264 16.248 36.3184t37.2744 15.292q16.248 0 26.7607 -10.0352q10.5137 -10.0361 10.5137 -26.2832q0 -21.0264 -15.7705 -36.7969q-15.7695 -15.7695 -36.7959 -15.7695q-16.248 0 -27.2393 10.5127z" />
    <glyph glyph-name="dvJx_RA" horiz-adv-x="835" 
d="M920 686h-140l-121 -686h-60l46 261l-331 -291h-74l415 358l21 123h-214l-8 -46q-15 -88 -72 -142t-140 -54q-75 0 -117 41.5t-42 111.5q0 23 4 43l18 99h64l-17 -99q-3 -19 -3 -37q0 -47 25 -74.5t72 -27.5q57 0 97 38t51 101l17 99h275l32 182h-691l9 54h893z
M51.8857 13.7344q-10.9912 10.5137 -10.9912 26.7617q0 21.0264 16.248 36.3184t37.2744 15.292q16.248 0 26.7607 -10.0352q10.5137 -10.0361 10.5137 -26.2832q0 -21.0264 -15.7705 -36.7969q-15.7695 -15.7695 -36.7959 -15.7695q-16.248 0 -27.2393 10.5127z" />
    <glyph glyph-name="dvPHx_RA" horiz-adv-x="1011" 
d="M599 686l-41 -236q31 52 83 84t121 32q79 0 126.5 -47.5t47.5 -128.5q0 -26 -4 -49q-13 -72 -49 -124.5t-88.5 -80t-112.5 -27.5q-36 0 -62 8l9 51q21 -6 48 -6q70 0 123 48t67 129q3 20 3 37q0 62 -37.5 98.5t-97.5 36.5q-56 0 -98 -27t-67 -69t-34 -89l-57 -326h-64
l53 300q-24 -34 -56 -54l-292 -255h-71l259 220q-6 -1 -17 -1q-83 0 -126 45.5t-43 127.5q0 32 6 66l43 237h-174l10 54h1098l-10 -54h-496zM536 686h-302l-42 -237q-5 -25 -5 -57q0 -62 31 -96t95 -34q70 0 117.5 47t59.5 118zM44.5 179q10.5 -10 10.5 -26q0 -22 -16 -37.5
t-37 -15.5q-17 0 -27.5 10t-10.5 26q0 22 16 37.5t37 15.5q17 0 27.5 -10z" />
    <glyph glyph-name="dvK_R" horiz-adv-x="748" 
d="M593 686l-41 -233q31 51 80.5 82t116.5 31q79 0 128.5 -49t49.5 -129q0 -21 -5 -49h-64q3 20 3 37q0 62 -37.5 98.5t-97.5 36.5q-77 0 -127 -49t-66 -118l-61 -344h-61l39 222q-27 -41 -62 -66l-247 -202h-72l198 158q-7 -1 -22 -1q-82 0 -131.5 47.5t-49.5 129.5
q0 21 5 51q12 68 49 119.5t90.5 79.5t115.5 28q70 0 111.5 -31t55.5 -82l41 233h-506l10 54h958l-10 -54h-391zM472 346q2 18 2 26q0 58 -35 98.5t-107 40.5q-46 0 -88 -21t-72 -60t-39 -91q-3 -21 -3 -40q0 -65 38.5 -101.5t101.5 -36.5q56 0 98 25.5t67 64t34 79.5z" />
    <glyph glyph-name="dvKH_R" horiz-adv-x="676" 
d="M127 229q-4 -28 -4 -39q0 -63 40 -99.5t113 -36.5q62 0 110 31.5t78 80.5q-38 20 -58 55t-20 83q0 23 4 43q16 93 84 148t164 55q84 0 132.5 -42t48.5 -117q0 -23 -4 -44q-16 -94 -85 -149t-163 -55q-25 0 -52 5q-42 -75 -110 -115l-213 -179h-73l1 4l170 141
q-5 -1 -17 -1q-99 0 -156 49.5t-57 136.5q0 21 5 51l28 162h38q66 0 111.5 34t60.5 122l23 133h-299l9 54h848l-9 -54h-485l-24 -140q-19 -106 -76 -151.5t-138 -45.5h-4zM444 314q0 -56 35 -88.5t97 -32.5q70 0 120 42t62 112q3 18 3 34q0 56 -35 88t-96 32
q-71 0 -120.5 -42t-62.5 -112q-3 -16 -3 -33z" />
    <glyph glyph-name="dvG_R" horiz-adv-x="462" 
d="M628 740l-10 -54h-202l-41 -233q-13 -73 -57.5 -119t-121.5 -46q-65 0 -99.5 35t-34.5 91q0 22 4 39l5 27h62l-6 -31q-3 -13 -3 -28q0 -34 18 -56t58 -22q50 0 76 31t34 77l42 235h-325l9 54h592zM122 -20l438 367l-11 -69l-349 -298h-78z" />
    <glyph glyph-name="dvGH_R" horiz-adv-x="441" 
d="M210 605q-3 -18 -3 -35q0 -48 31 -72t98 -24h49l-10 -53h-53q-82 0 -127.5 -34.5t-56.5 -89.5q-2 -9 -2 -25q0 -54 42 -82t111 -28q61 0 114 25.5t88.5 71t45.5 103.5h54q-11 -62 -45 -113.5t-85 -85.5l-262 -218h-72l208 168q-36 -4 -55 -4q-98 0 -154 39.5t-56 110.5
q0 16 3 34q11 65 58.5 105t108.5 48l1 2q-45 7 -72 35t-27 79q0 21 4 40l15 84h-135l10 54h622l-10 -54h-424z" />
    </font>
</defs>
</svg>
