<?xml version="1.0" standalone="no"?>
<!DOCTYPE svg PUBLIC "-//W3C//DTD SVG 1.1//EN" "http://www.w3.org/Graphics/SVG/1.1/DTD/svg11.dtd" >
<svg xmlns="http://www.w3.org/2000/svg" xmlns:xlink="http://www.w3.org/1999/xlink" version="1.1">
<metadata></metadata>
<defs>
<font id="poppinsbold" horiz-adv-x="1388" >
<font-face units-per-em="2048" ascent="1638" descent="-410" />
<missing-glyph horiz-adv-x="409" />
<glyph horiz-adv-x="0" />
<glyph horiz-adv-x="682" />
<glyph horiz-adv-x="0" />
<glyph horiz-adv-x="0" />
<glyph unicode="&#xd;" horiz-adv-x="409" />
<glyph unicode=" "  horiz-adv-x="409" />
<glyph unicode="&#x09;" horiz-adv-x="409" />
<glyph unicode="&#xa0;" horiz-adv-x="409" />
<glyph unicode="!" horiz-adv-x="782" d="M217 1520h383l-43 -1002h-297zM227 0v350h365v-350h-365z" />
<glyph unicode="&#x22;" horiz-adv-x="854" d="M90 1640h285l-25 -452h-235zM479 1640h285l-25 -452h-235z" />
<glyph unicode="#" horiz-adv-x="1814" d="M37 317v320h366l54 248h-291v319h360l66 312h326l-66 -312h342l66 312h327l-65 -312h256v-319h-326l-53 -248h250v-320h-318l-67 -317h-328l68 317h-342l-68 -317h-326l68 317h-299zM729 637h342l53 248h-342z" />
<glyph unicode="$" horiz-adv-x="1296" d="M78 1053q0 125 68.5 219t187.5 144t266 54v168h88v-170q225 -14 358.5 -127.5t149.5 -300.5h-379q-8 61 -41 100.5t-88 53.5v-320l64 -20q150 -47 242.5 -91t160.5 -130t68 -225q0 -115 -61.5 -211.5t-182.5 -153.5t-291 -57v-164h-88v168q-223 18 -363.5 135t-154.5 311 h373q6 -66 44 -110.5t101 -61.5v326q-35 10 -45 14q-150 43 -245 87t-163.5 131t-68.5 231zM453 1067q0 -55 37.5 -93t109.5 -69v297q-70 -4 -108.5 -39t-38.5 -96zM688 254q74 2 117 42t43 103q0 57 -41 95t-119 67v-307z" />
<glyph unicode="%" horiz-adv-x="1646" d="M51 1128q0 164 95.5 254.5t248.5 90.5q150 0 245 -90.5t95 -254.5t-95 -254t-245 -90q-154 0 -249 90.5t-95 253.5zM260 0l791 1452h338l-791 -1452h-338zM285 1128q0 -63 28.5 -99t77.5 -36q51 0 82 36t31 99t-31 99.5t-82 36.5q-49 0 -77.5 -36t-28.5 -100zM915 326 q0 164 95.5 254t244.5 90q152 0 246 -90.5t94 -253.5q0 -164 -94 -255t-246 -91q-150 0 -245 91t-95 255zM1147 326q0 -66 28.5 -102t79.5 -36q49 0 79 36t30 102q0 63 -29.5 99t-79.5 36q-51 0 -79.5 -36t-28.5 -99z" />
<glyph unicode="&#x26;" horiz-adv-x="1419" d="M59 434q0 178 94.5 292t241.5 132l-24 41q-33 51 -49.5 102.5t-16.5 112.5q0 92 49 172t144.5 128t228.5 48q186 0 288.5 -78.5t139.5 -205.5q29 -90 23 -199h-326q0 35 -4 76q-6 117 -115 116q-45 0 -72.5 -26.5t-27.5 -67.5q0 -35 15.5 -63.5t49.5 -75.5l717 -938h-352 l-168 203q-20 -33 -35 -51q-45 -76 -132 -121t-202 -45q-145 0 -250.5 59t-161 160.5t-55.5 228.5zM360 444q0 -76 48.5 -122t121.5 -46q72 0 118 45.5t46 114.5q0 72 -51 119t-123 47t-116 -41t-44 -117z" />
<glyph unicode="'" horiz-adv-x="468" d="M90 1640h289l-27 -452h-235z" />
<glyph unicode="(" horiz-adv-x="841" d="M53 823q0 391 152.5 702.5t404.5 506.5h338v-35q-283 -233 -421 -525t-138 -649q0 -709 559 -1173v-33h-338q-252 193 -404.5 504t-152.5 702z" />
<glyph unicode=")" horiz-adv-x="845" d="M-104 -350q561 465 561 1173q0 356 -139.5 648t-421.5 526v35h342q250 -195 403.5 -506.5t153.5 -700.5q0 -391 -154 -703t-403 -505h-342v33z" />
<glyph unicode="*" horiz-adv-x="1081" d="M150 1042l251 88l-247 84l116 209l211 -176l-53 269h244l-51 -269l210 176l117 -209l-254 -88l254 -84l-125 -217l-202 181l51 -269h-240l49 269l-202 -185z" />
<glyph unicode="+" horiz-adv-x="1148" d="M51 555v322h355v362h337v-362h355v-322h-355v-360h-337v360h-355z" />
<glyph unicode="," horiz-adv-x="485" d="M57 -98v315h289q62 -119 62 -258q0 -141 -75 -233.5t-233 -92.5v129q55 0 81 25t26 94v21h-150z" />
<glyph unicode="-" horiz-adv-x="1112" d="M12 573v291h903v-291h-903z" />
<glyph unicode="." horiz-adv-x="483" d="M59 0v350h363v-350h-363z" />
<glyph unicode="/" horiz-adv-x="796" d="M-41 -385l551 2331h338l-551 -2331h-338z" />
<glyph unicode="0" horiz-adv-x="1318" d="M86 739q0 -340 137 -538.5t439 -198.5q299 0 437 198.5t138 538.5q0 338 -138 536t-437 198q-301 0 -438.5 -198t-137.5 -536zM430 739q0 193 47 297.5t185 104.5q135 0 181 -103.5t46 -298.5q0 -194 -46 -299.5t-181 -105.5q-137 0 -184.5 105.5t-47.5 299.5z" />
<glyph unicode="1" horiz-adv-x="729" d="M23 1120v328h585v-1448h-368v1120h-217z" />
<glyph unicode="2" horiz-adv-x="1159" d="M70 16v263q651 465 651 739q0 168 -146 168q-82 0 -119.5 -57.5t-41.5 -178.5h-342q12 264 159.5 397.5t372.5 133.5q236 0 355.5 -119t119.5 -309q0 -211 -161.5 -413t-387.5 -341h572v-283h-1032z" />
<glyph unicode="3" horiz-adv-x="1239" d="M84 483h342q4 -96 53 -151.5t144 -55.5q76 0 119.5 45.5t43.5 116.5q0 178 -258 178h-65v285h63q231 -4 232 166q0 74 -40 114t-108 40q-74 0 -116.5 -50.5t-49.5 -134.5h-342q10 229 143.5 352t372.5 123q152 0 260.5 -52t165 -143t56.5 -206q0 -141 -73 -227t-181 -109 v-10q281 -90 280 -350q0 -125 -57 -222.5t-166.5 -151.5t-263.5 -54q-250 0 -396.5 122.5t-158.5 374.5z" />
<glyph unicode="4" horiz-adv-x="1376" d="M90 266v293l662 907h376v-895h175v-305h-175v-266h-354v266h-684zM446 571h357v490z" />
<glyph unicode="5" horiz-adv-x="1316" d="M178 459h342q10 -70 56.5 -115t125.5 -45q92 0 138.5 59.5t46.5 157.5q0 94 -49.5 145.5t-137.5 51.5q-68 0 -112.5 -30t-61.5 -77h-340v877h969v-307h-651v-293q43 49 119.5 76.5t167.5 27.5q145 0 243.5 -64.5t145.5 -173t47 -239.5q0 -238 -133 -376t-375 -138 q-164 0 -285 58.5t-186.5 163t-69.5 241.5z" />
<glyph unicode="6" horiz-adv-x="1286" d="M117 727q0 401 129 590.5t420 189.5q229 0 348 -130t133 -328h-328q-14 88 -56 133t-120 45q-119 0 -169 -109.5t-46 -337.5q35 84 120 132.5t197 48.5q205 0 324 -124t119 -356q0 -145 -59.5 -257.5t-175 -175t-277.5 -62.5q-317 0 -438 196.5t-121 544.5zM455 498 q0 -95 53 -153t156 -58q92 0 144 51t52 149t-53 150.5t-145 52.5q-88 0 -147.5 -50t-59.5 -142z" />
<glyph unicode="7" horiz-adv-x="1044" d="M37 1161v301h971v-260l-519 -1202h-362l524 1161h-614z" />
<glyph unicode="8" horiz-adv-x="1320" d="M102 436q0 258 244 367q-102 43 -155.5 124t-53.5 195q0 105 59.5 197t177.5 149.5t285 57.5q170 0 288 -57.5t176.5 -149.5t58.5 -197q0 -115 -53.5 -195.5t-155.5 -123.5q244 -109 244 -367q0 -147 -74 -252.5t-200 -160t-284 -54.5q-156 0 -282.5 54.5t-200.5 160 t-74 252.5zM442 457q0 -92 58.5 -145.5t158.5 -53.5t159 53.5t59 145.5t-60.5 144t-157.5 52q-96 0 -156.5 -52t-60.5 -144zM481 1063q0 -84 48.5 -128t129.5 -44q82 0 130.5 44t48.5 128q0 82 -49.5 129t-129.5 47t-129 -47t-49 -129z" />
<glyph unicode="9" horiz-adv-x="1230" d="M78 1012q0 145 59.5 257.5t175 175t277.5 62.5q219 0 342 -92t170 -250.5t47 -382.5q0 -393 -120 -594.5t-402 -201.5q-156 0 -267.5 62.5t-172 166.5t-68.5 229h327q29 -178 181 -178q119 0 167 108.5t44 338.5q-35 -84 -120 -132.5t-198 -48.5q-205 0 -323.5 124 t-118.5 356zM406 1006q0 -98 53 -150.5t145 -52.5q88 0 147.5 50t59.5 142q0 95 -53 153t-156 58q-92 0 -144 -51t-52 -149z" />
<glyph unicode=":" horiz-adv-x="567" d="M111 0v350h364v-350h-364zM111 834v350h364v-350h-364z" />
<glyph unicode=";" horiz-adv-x="737" d="M202 819v350h363v-350h-363zM219 -98v315h289q62 -119 62 -258q0 -141 -75 -233.5t-233 -92.5v129q55 0 81 25t26 94v21h-150z" />
<glyph unicode="&#x3c;" horiz-adv-x="958" d="M51 717l418 454h438l-418 -454l418 -451h-438z" />
<glyph unicode="=" horiz-adv-x="1251" d="M51 297v317h1149v-317h-1149zM51 817v320h1149v-320h-1149z" />
<glyph unicode="&#x3e;" horiz-adv-x="958" d="M51 266l418 451l-418 454h438l418 -454l-418 -451h-438z" />
<glyph unicode="?" horiz-adv-x="1073" d="M47 1110q-4 123 52.5 224.5t171 159.5t276.5 58q217 0 346 -111.5t129 -320.5q0 -195 -126 -305t-337 -115v-182h-330v408h138q147 0 229 42t82 150q0 70 -39 109t-104 39q-74 0 -116 -44t-42 -112h-330zM213 0v350h365v-350h-365z" />
<glyph unicode="@" horiz-adv-x="2603" d="M92 469q0 371 183.5 646.5t493.5 421.5t681 146q334 0 579.5 -111.5t380 -325.5t134.5 -517q0 -205 -88.5 -376t-235.5 -270t-313 -99q-145 0 -239.5 64.5t-115.5 197.5q-68 -127 -169 -194.5t-248 -67.5q-125 0 -222.5 60t-151.5 170t-54 253q0 27 4 80q14 176 105 314 t237.5 216t322.5 78q223 0 359.5 -115.5t136.5 -322.5q0 -39 -6 -82l-27 -191q-4 -37 -4 -49q0 -57 23.5 -80.5t72.5 -23.5q66 0 124.5 48t95 144.5t36.5 233.5q0 205 -91 358.5t-269 237.5t-432 84q-305 0 -522.5 -123t-329 -333t-111.5 -472q0 -352 212 -550t636 -195 l-66 -285q-362 4 -613 129t-380 354.5t-129 546.5zM1044 518q0 -113 61.5 -170t151.5 -57q70 0 132.5 35.5t102.5 111.5t40 189q0 112 -61.5 167.5t-155.5 55.5q-70 0 -131.5 -36t-100.5 -110.5t-39 -185.5z" />
<glyph unicode="A" horiz-adv-x="1495" d="M16 0l531 1438h403l531 -1438h-373l-90 264h-543l-90 -264h-369zM565 530h363l-180 533z" />
<glyph unicode="B" horiz-adv-x="1337" d="M121 0v1448h657q221 0 342 -96.5t121 -274.5q0 -131 -69.5 -218t-182.5 -114q131 -30 208 -126.5t77 -223.5q0 -186 -124 -290.5t-355 -104.5h-674zM471 285h250h2q192 0 192 159q0 78 -51 122t-145 44h-248v-325zM471 856h229q182 0 183 156q0 155 -185 155h-2h-225 v-311z" />
<glyph unicode="C" horiz-adv-x="1550" d="M78 725q0 215 87 383t246.5 261t370.5 93q277 0 458 -145.5t235 -392.5h-371q-41 100 -126 157.5t-202 57.5q-154 0 -248 -113t-94 -301t94.5 -300t247.5 -112q117 0 202 57.5t126 155.5h371q-53 -246 -234.5 -392t-458.5 -146q-211 0 -370.5 93t-246.5 261t-87 383z" />
<glyph unicode="D" horiz-adv-x="1501" d="M121 0v1448h547q233 0 403 -90t261 -254t91 -377t-91 -378t-262 -257t-402 -92h-547zM471 313h166q205 0 318.5 108.5t113.5 305.5t-113.5 305.5t-318.5 108.5h-166v-828z" />
<glyph unicode="E" horiz-adv-x="1099" d="M121 0v1448h901v-279h-551v-303h490v-264h-490v-321h551v-281h-901z" />
<glyph unicode="F" horiz-adv-x="1124" d="M121 0v1448h944v-279h-594v-317h459v-266h-459v-586h-350z" />
<glyph unicode="G" horiz-adv-x="1560" d="M78 725q0 215 89 383t252 261t380 93q272 0 448 -133t219 -360h-370q-37 78 -113 124t-182 46q-166 0 -266.5 -112t-100.5 -302q0 -207 105.5 -317.5t300.5 -110.5q125 0 219 68.5t133 195.5h-442v252h735v-346q-41 -127 -131 -235.5t-230.5 -176t-320.5 -67.5 q-219 0 -383 93t-253 261t-89 383z" />
<glyph unicode="H" horiz-adv-x="1492" d="M121 0v1448h350v-561h549v561h352v-1448h-352v604h-549v-604h-350z" />
<glyph unicode="I" horiz-adv-x="591" d="M121 0v1448h350v-1448h-350z" />
<glyph unicode="J" horiz-adv-x="1124" d="M31 506h346q0 -203 153 -203q133 0 134 156v989h350v-989q0 -227 -124 -350t-343 -123q-238 0 -377 134t-139 386z" />
<glyph unicode="K" horiz-adv-x="1413" d="M121 0v1448h350v-637l496 637h419l-583 -709l583 -739h-423l-492 649v-649h-350z" />
<glyph unicode="L" horiz-adv-x="978" d="M121 0v1448h350v-1180h467v-268h-817z" />
<glyph unicode="M" horiz-adv-x="1869" d="M121 0v1438h428l391 -1002l383 1002h426v-1438h-350v899l-312 -899h-303l-313 901v-901h-350z" />
<glyph unicode="N" horiz-adv-x="1527" d="M121 0v1448h350l586 -897v897h350v-1448h-350l-586 889v-889h-350z" />
<glyph unicode="O" horiz-adv-x="1615" d="M78 729q0 213 97 382t264 264t370 95q205 0 372 -95t263 -264t96 -382t-97 -383t-264 -265t-370 -95t-370 95t-264 265t-97 383zM434 729q0 -190 101.5 -303t273.5 -113q170 0 272.5 113t102.5 303t-101.5 303t-273.5 113t-273.5 -111.5t-101.5 -304.5z" />
<glyph unicode="P" horiz-adv-x="1267" d="M121 0v1448h567q258 0 393.5 -128t135.5 -345q0 -135 -60.5 -240.5t-179.5 -166t-289 -60.5h-217v-508h-350zM471 788h178q211 1 211 187q0 190 -211 190h-178v-377z" />
<glyph unicode="Q" horiz-adv-x="1615" d="M78 729q0 213 97 382t264 264t370 95q205 0 372 -95t263 -264t96 -382q0 -188 -77 -344t-212 -256l324 -383h-420l-188 256q-82 -16 -158 -16q-203 0 -370 95t-264 265t-97 383zM434 729q0 -190 101.5 -303t273.5 -113q170 0 272.5 113t102.5 303t-101.5 303t-273.5 113 t-273.5 -111.5t-101.5 -304.5z" />
<glyph unicode="R" horiz-adv-x="1302" d="M121 0v1448h598q172 0 290.5 -59.5t178 -163t59.5 -236.5q0 -158 -87 -268.5t-253 -151.5l344 -569h-387l-313 547h-80v-547h-350zM471 786h217q104 0 153.5 46.5t49.5 136.5q0 86 -50 135t-153 49h-217v-367z" />
<glyph unicode="S" horiz-adv-x="1234" d="M78 1053q0 129 65.5 223t181 144t265.5 50q242 0 384 -114.5t161 -315.5h-379q-10 72 -52 114t-114 42q-61 0 -99 -33t-38 -96q0 -51 33.5 -87t85 -58.5t147.5 -57.5q139 -47 227 -93t151.5 -134t63.5 -229q0 -115 -58.5 -211.5t-172 -153.5t-275.5 -57 q-244 0 -401.5 118.5t-171.5 331.5h373q8 -82 58 -129t128 -47q68 0 106.5 37t38.5 98q0 55 -35.5 92t-89 60.5t-147.5 56.5q-137 47 -224 91t-149.5 131t-62.5 227z" />
<glyph unicode="T" horiz-adv-x="1187" d="M27 1169v279h1134v-279h-393v-1169h-352v1169h-389z" />
<glyph unicode="U" horiz-adv-x="1427" d="M113 612v836h348v-836q0 -143 64.5 -219t187.5 -76t187.5 76t64.5 219v836h350v-836q0 -205 -80 -345t-218 -210.5t-312 -70.5t-307.5 69.5t-209 211t-75.5 345.5z" />
<glyph unicode="V" horiz-adv-x="1488" d="M16 1448h375l354 -1090l355 1090h375l-504 -1448h-453z" />
<glyph unicode="W" horiz-adv-x="2152" d="M63 1448h381l187 -1049l254 1049h383l254 -1049l188 1049h379l-346 -1448h-434l-232 969l-233 -969h-434z" />
<glyph unicode="X" horiz-adv-x="1429" d="M16 1448h416l297 -436l256 436h399l-456 -729l487 -719h-416l-305 451l-262 -451h-401l463 745z" />
<glyph unicode="Y" horiz-adv-x="1386" d="M16 1448h402l278 -590l279 590h397l-502 -967v-481h-352v481z" />
<glyph unicode="Z" horiz-adv-x="1216" d="M94 0v266l629 901h-621v281h1016v-266l-635 -899h639v-283h-1028z" />
<glyph unicode="[" horiz-adv-x="931" d="M190 -385v2331h635v-283h-305v-1765h305v-283h-635z" />
<glyph unicode="\" horiz-adv-x="1591" d="M324 1946h335l549 -2331h-336z" />
<glyph unicode="]" horiz-adv-x="925" d="M104 -102h306v1765h-306v283h635v-2331h-635v283z" />
<glyph unicode="^" horiz-adv-x="1447" d="M59 338l496 1104h340l494 -1104h-349l-315 702l-317 -702h-349z" />
<glyph unicode="_" horiz-adv-x="1445" d="M96 -80h1268v-342h-1268v342z" />
<glyph unicode="`" horiz-adv-x="634" d="M37 1436v264l493 -238v-237z" />
<glyph unicode="a" d="M61 571q0 180 64.5 312.5t176.5 203t253 70.5q131 0 225 -59.5t140 -161.5v207h348v-1143h-348v207q-45 -102 -139.5 -161.5t-225.5 -59.5q-141 0 -253 70.5t-176.5 203.5t-64.5 311zM418 571q0 -131 68.5 -204.5t181.5 -73.5q111 0 181.5 75.5t70.5 202.5q0 129 -71 204 t-181 75q-113 0 -181.5 -74t-68.5 -205z" />
<glyph unicode="b" d="M121 0v1516h350v-580q43 102 137 161.5t226 59.5q141 0 252.5 -70.5t176 -202.5t64.5 -313q0 -178 -64.5 -311t-176 -203.5t-252.5 -70.5q-131 0 -225.5 59t-137.5 162v-207h-350zM469 571q0 -127 70.5 -202.5t181.5 -75.5q113 0 181.5 73.5t68.5 204.5t-68.5 205 t-181.5 74q-111 0 -181.5 -75t-70.5 -204z" />
<glyph unicode="c" horiz-adv-x="1257" d="M61 571q0 180 73 312.5t204 203t299 70.5q221 0 370.5 -122t188.5 -335h-371q-16 74 -67 115t-129 41q-92 0 -151.5 -72.5t-59.5 -212.5q0 -139 59.5 -211.5t151.5 -72.5q78 0 129 41t67 114h371q-39 -213 -188.5 -334.5t-370.5 -121.5q-168 0 -298 70.5t-204 203.5 t-74 311z" />
<glyph unicode="d" d="M61 571q0 180 64.5 312.5t176.5 203t253 70.5q131 0 225 -59.5t138 -161.5v580h350v-1516h-350v207q-43 -102 -137.5 -161.5t-225.5 -59.5q-141 0 -253 70.5t-176.5 203.5t-64.5 311zM418 571q0 -131 68.5 -204.5t181.5 -73.5q111 0 181.5 75.5t70.5 202.5q0 129 -71 204 t-181 75q-113 0 -181.5 -74t-68.5 -205z" />
<glyph unicode="e" horiz-adv-x="1267" d="M61 571q0 180 73 312.5t204 203t299 70.5q170 0 299 -69.5t199.5 -195.5t70.5 -290q0 -43 -10 -94h-793q6 -129 65.5 -185.5t152.5 -56.5q78 0 129 39t67 101h371q-23 -121 -98.5 -216.5t-192.5 -149.5t-260 -54q-168 0 -298 70.5t-204 203.5t-74 311zM406 655h446v7 q0 108 -60 162q-62 56 -155 57q-96 0 -159.5 -57.5t-71.5 -168.5z" />
<glyph unicode="f" horiz-adv-x="753" d="M27 848v295h137v12q0 213 124 328.5t359 115.5q49 0 74 -2v-301l-39 2q-86 0 -125 -36.5t-43 -118.5h207v-295h-207v-848h-350v848h-137z" />
<glyph unicode="g" d="M61 571q0 180 64.5 312.5t176.5 203t253 70.5q131 0 225 -59.5t140 -161.5v207h348v-1137q0 -160 -61.5 -288t-188.5 -203.5t-316 -75.5q-258 0 -412.5 122t-185.5 330h347q16 -70 74.5 -108.5t152.5 -38.5q109 0 175.5 62.5t66.5 199.5v201q-45 -102 -139.5 -161.5 t-225.5 -59.5q-141 0 -253 70.5t-176.5 203.5t-64.5 311zM418 571q0 -131 68.5 -204.5t181.5 -73.5q111 0 181.5 75.5t70.5 202.5q0 129 -71 204t-181 75q-113 0 -181.5 -74t-68.5 -205z" />
<glyph unicode="h" horiz-adv-x="1384" d="M121 0v1516h350v-582q49 102 146.5 161.5t228.5 59.5q196 0 312 -131t116 -360v-664h-350v623q0 115 -60.5 179t-161.5 64q-106 0 -168.5 -67.5t-62.5 -192.5v-606h-350z" />
<glyph unicode="i" horiz-adv-x="591" d="M88 1464q0 80 57.5 132.5t151.5 52.5t151.5 -52.5t57.5 -132.5q0 -78 -57.5 -130t-151.5 -52t-151.5 52t-57.5 130zM121 0v1143h350v-1143h-350z" />
<glyph unicode="j" horiz-adv-x="593" d="M-66 -244h86q55 0 80 23.5t25 79.5v1284h352v-1280q0 -408 -409 -408h-134v301zM90 1464q0 80 57.5 132.5t151.5 52.5t151.5 -52.5t57.5 -132.5q0 -78 -57.5 -130t-151.5 -52t-151.5 52t-57.5 130z" />
<glyph unicode="k" horiz-adv-x="1241" d="M121 0v1516h350v-832l342 459h412l-461 -572l471 -571h-422l-342 485v-485h-350z" />
<glyph unicode="l" horiz-adv-x="591" d="M121 0v1516h350v-1516h-350z" />
<glyph unicode="m" horiz-adv-x="2166" d="M121 0v1143h350v-195q45 96 138 151.5t218 55.5q131 0 231.5 -60.5t151.5 -172.5q59 106 163 169.5t229 63.5q210 0 331 -130t121 -361v-664h-348v623q0 109 -58.5 169t-158.5 60q-104 0 -164.5 -64.5t-60.5 -181.5v-606h-351v623q0 109 -57 169t-158 60 q-104 0 -165.5 -63.5t-61.5 -182.5v-606h-350z" />
<glyph unicode="n" horiz-adv-x="1384" d="M121 0v1143h350v-209q49 102 146.5 161.5t228.5 59.5q196 0 312 -131t116 -360v-664h-350v623q0 115 -60.5 179t-161.5 64q-106 0 -168.5 -67.5t-62.5 -192.5v-606h-350z" />
<glyph unicode="o" horiz-adv-x="1308" d="M61 571q0 178 77 311.5t212 204t305 70.5t304.5 -70.5t211 -203.5t76.5 -312q0 -178 -76.5 -311t-211 -203.5t-304.5 -70.5t-305 70.5t-212 203.5t-77 311zM418 571q0 -137 68.5 -208.5t168.5 -71.5t168 71.5t68 208.5t-67.5 210t-168.5 73q-100 0 -168.5 -72.5 t-68.5 -210.5z" />
<glyph unicode="p" d="M121 -545v1688h350v-207q43 102 137 161.5t226 59.5q141 0 252.5 -70.5t176 -202.5t64.5 -313q0 -178 -64.5 -311t-176 -203.5t-252.5 -70.5q-131 0 -225.5 59t-137.5 162v-752h-350zM469 571q0 -127 70.5 -202.5t181.5 -75.5q113 0 181.5 73.5t68.5 204.5t-68.5 205 t-181.5 74q-111 0 -181.5 -75t-70.5 -204z" />
<glyph unicode="q" d="M61 565q0 170 70 304.5t188.5 209t260.5 74.5q229 0 340 -176v166h348v-1688h-348v729q-118 -196 -338 -196h-2q-143 0 -261 72.5t-188 203.5t-70 301zM418 565q0 -135 72.5 -203.5t177.5 -68.5q102 0 177 72.5t75 205.5t-75 205t-177 72q-103 0 -176.5 -73t-73.5 -210z " />
<glyph unicode="r" horiz-adv-x="890" d="M121 0v1143h350v-215q66 104 169 165.5t224 61.5v-375h-100q-139 0 -216 -59t-77 -201v-520h-350z" />
<glyph unicode="s" horiz-adv-x="1136" d="M78 381h338q8 -74 62 -113t140 -39q59 0 90 28t31 73q0 59 -56 84.5t-183 54.5q-127 27 -209 57.5t-141.5 99t-59.5 187.5q0 154 117 249t330 95q217 0 347 -108.5t163 -286.5h-328q-14 70 -64.5 109.5t-126.5 39.5q-59 0 -89.5 -25.5t-30.5 -72.5q0 -53 56 -79.5 t177 -53.5q131 -31 215 -62.5t145.5 -103.5t61.5 -192q0 -98 -53.5 -174t-153.5 -119t-238 -43q-231 0 -370 102t-170 293z" />
<glyph unicode="t" horiz-adv-x="843" d="M33 848v295h153v280h351v-280h229v-295h-229v-426q0 -68 27.5 -94.5t92.5 -26.5h111v-301h-158q-201 0 -312.5 99.5t-111.5 328.5v420h-153z" />
<glyph unicode="u" horiz-adv-x="1378" d="M104 479v664h349v-621q0 -117 60 -181.5t163 -64.5q106 0 167.5 68t61.5 193v606h352v-1143h-352v207q-49 -100 -146 -159.5t-227 -59.5q-197 0 -312.5 131t-115.5 360z" />
<glyph unicode="v" horiz-adv-x="1294" d="M25 1143h372l252 -801l248 801h373l-406 -1143h-434z" />
<glyph unicode="w" horiz-adv-x="1798" d="M8 1143h350l152 -824l213 824h373l219 -826l151 826h326l-293 -1143h-391l-207 766l-209 -766h-391z" />
<glyph unicode="x" horiz-adv-x="1239" d="M12 1143h394l231 -322l190 322h385l-387 -582l404 -561h-393l-234 326l-190 -326h-385l379 596z" />
<glyph unicode="y" horiz-adv-x="1298" d="M-6 1143h391l274 -701l256 701h388l-713 -1688h-385l268 588z" />
<glyph unicode="z" horiz-adv-x="1003" d="M47 0v276l492 576h-484v291h883v-277l-508 -573h528v-293h-911z" />
<glyph unicode="{" horiz-adv-x="937" d="M109 700v123q203 23 202 213q0 78 -18 189q-20 131 -21 211q0 160 48.5 273.5t110 174t112.5 84.5h327v-26q-119 -49 -197.5 -176.5t-78.5 -321.5q0 -84 20 -211q18 -111 19 -186q0 -119 -55.5 -190t-171.5 -93v-4q227 -43 227 -281q0 -78 -19 -184q-20 -131 -20 -215 q0 -195 79 -322t197 -176v-26h-327q-51 25 -112.5 85t-110 173.5t-48.5 273.5q0 80 21 211q18 111 18 188q0 82 -46 142.5t-156 70.5z" />
<glyph unicode="|" horiz-adv-x="499" d="M74 -266v1937h352v-1937h-352z" />
<glyph unicode="}" horiz-adv-x="907" d="M76 -418q74 31 137 106.5t101 185.5t38 237q0 84 -20 215q-18 106 -19 184q0 207 228 250v4q-117 22 -172.5 84.5t-55.5 167.5q0 76 19 186q20 127 20 211q0 127 -38 236.5t-101 185.5t-137 107v26h327q51 -25 113 -85t110 -174t48 -273q0 -80 -21 -211 q-20 -123 -20 -189q0 -84 48 -146.5t157 -66.5v-123q-109 -2 -157 -65.5t-48 -147.5q0 -66 20 -188q20 -131 21 -211q0 -160 -48 -273.5t-109.5 -174t-113.5 -84.5h-327v26z" />
<glyph unicode="~" horiz-adv-x="1302" d="M51 422q37 229 142.5 339.5t265.5 110.5q67 0 122.5 -20.5t120.5 -58.5q51 -29 87 -43.5t73 -14.5q55 0 85 34t40 105h264q-35 -229 -141 -339.5t-266 -110.5q-66 0 -119 19.5t-125 58.5q-55 31 -89 45t-71 14q-53 0 -83.5 -33.5t-43.5 -105.5h-262z" />
<glyph unicode="&#xa1;" horiz-adv-x="825" d="M217 -365h383l-43 1002h-297zM227 805h365v350h-365v-350z" />
<glyph unicode="&#xa2;" horiz-adv-x="1189" d="M61 528q0 229 127 364.5t344 158.5v174h152v-174q182 -18 306 -128t138 -292h-321q-18 70 -70.5 106.5t-120.5 36.5q-100 0 -159.5 -64.5t-59.5 -183.5q0 -117 59.5 -180t159.5 -63q68 0 123.5 37.5t67.5 103.5h321q-14 -180 -138 -290.5t-306 -129.5v-180h-152v180 q-219 23 -345 158t-126 366z" />
<glyph unicode="&#xa3;" horiz-adv-x="1318" d="M74 590v233h172q-47 162 -47 287q0 133 61.5 232.5t173 152.5t254.5 53q233 0 365.5 -129t148.5 -336h-323q-8 80 -54.5 130.5t-124.5 50.5t-121.5 -50.5t-43.5 -142.5q0 -49 12 -98t43 -150h356v-233h-307v-12q0 -76 -34 -162t-109 -152h706v-274h-1048l-43 170 q102 86 149 182t47 236v12h-233z" />
<glyph unicode="&#xa4;" horiz-adv-x="1183" d="M129 440l113 111q-74 96 -74 225q0 133 76 225l-115 113l131 131l137 -137q88 35 199 35q109 0 192 -33l136 135l129 -131l-111 -108q80 -92 80 -230q0 -131 -76 -229l107 -107l-129 -131l-129 129q-86 -37 -199 -37q-109 0 -207 39l-129 -131zM440 772q0 -82 44 -124 t112 -42q66 0 111 42t45 124t-45 126t-111 44q-68 0 -112 -43t-44 -127z" />
<glyph unicode="&#xa5;" horiz-adv-x="1409" d="M29 1448h401l279 -645l278 645h397l-299 -576h205v-231h-325l-56 -106h381v-232h-407v-303h-353v303h-409v232h383l-55 106h-328v231h207z" />
<glyph unicode="&#xa6;" horiz-adv-x="761" d="M205 -266v844h352v-844h-352zM205 831v840h352v-840h-352z" />
<glyph unicode="&#xa7;" horiz-adv-x="1204" d="M63 528q0 102 54.5 183.5t175.5 122.5q-78 61 -119 138t-41 163q0 160 123 259t344 99q211 0 333 -110.5t140 -297.5h-346q-4 78 -39 119t-96 41q-47 0 -76 -23.5t-29 -70.5t30 -83t96.5 -73t191.5 -90q162 -74 250 -163t88 -214q0 -211 -232 -305q78 -61 119 -138 t41 -161q0 -162 -123 -261t-342 -99q-211 0 -333.5 111.5t-141.5 295.5h346q12 -160 137 -159q47 0 75 23.5t28 70.5q0 45 -30 82t-96.5 74.5t-191.5 91.5q-160 68 -248 157.5t-88 216.5zM438 528q0 -72 44 -115.5t120 -43.5q78 0 123 46t45 113q0 70 -44 115t-122 45 t-122 -45t-44 -115z" />
<glyph unicode="&#xa8;" horiz-adv-x="804" d="M47 1419q0 64 42 107t106 43q63 0 105 -43t42 -107q0 -61 -42 -103t-105 -42t-105.5 42t-42.5 103zM463 1419q0 64 42 107t103 43q63 0 105.5 -43t42.5 -107q0 -61 -42 -103t-106 -42q-61 0 -103 42t-42 103z" />
<glyph unicode="&#xa9;" horiz-adv-x="1595" d="M78 731q0 -215 91 -383t255 -262t375 -94t374.5 94t255 262t91.5 383q0 213 -91.5 381t-255 261t-374.5 93t-375 -93t-255 -261t-91 -381zM195 731q0 186 73.5 327.5t209.5 219.5t321 78q182 0 319 -78t211 -219t74 -328q0 -186 -74 -329.5t-211 -222.5t-319 -79 q-184 0 -320.5 79t-210 222.5t-73.5 329.5zM350 729q0 141 58.5 245.5t162 160t236.5 55.5q162 0 281.5 -96.5t148.5 -259.5h-295q-16 57 -56 89.5t-95 32.5q-74 0 -121 -58t-47 -169t47 -170t121 -59q55 0 95 33.5t56 89.5h295q-29 -162 -148.5 -258.5t-281.5 -96.5 q-133 0 -236.5 55.5t-162 160t-58.5 245.5z" />
<glyph unicode="&#xaa;" horiz-adv-x="960" d="M51 1085q0 172 94.5 271.5t241.5 99.5q92 0 151.5 -35t98.5 -102v129h262v-721h-262v127q-39 -70 -98.5 -104.5t-149.5 -34.5q-150 0 -244 98t-94 272zM322 1083q0 -76 44 -116.5t111 -40.5q70 0 115 43t45 118q0 74 -45 117t-115 43q-65 0 -110 -44t-45 -120z" />
<glyph unicode="&#xab;" horiz-adv-x="1140" d="M92 604l174 359h322l-176 -359l176 -358h-322zM559 604l172 359h324l-178 -359l178 -358h-324z" />
<glyph unicode="&#xac;" horiz-adv-x="1583" d="M63 641v264h1397v-536h-350v272h-1047z" />
<glyph unicode="&#xad;" horiz-adv-x="1112" d="M12 573v291h903v-291h-903z" />
<glyph unicode="&#xae;" horiz-adv-x="1660" d="M78 731q0 215 95 382t266 260t392 93q222 0 393 -93t266 -260t95 -382t-95 -383t-266 -262t-393 -94q-221 0 -392 94t-266 262t-95 383zM195 731q0 -188 77.5 -329.5t221 -219.5t337.5 -78q193 0 337.5 78t222 220.5t77.5 328.5q0 188 -77.5 330.5t-221 219.5t-338.5 77 t-339 -77t-220.5 -219t-76.5 -331zM524 307v877h357q162 0 242.5 -77t80.5 -189q0 -91 -51 -158.5t-152 -93.5l216 -359h-238l-197 344h-41v-344h-217zM741 788h119q121 0 121 99q0 100 -121 100h-119v-199z" />
<glyph unicode="&#xaf;" horiz-adv-x="892" d="M37 1292v236h819v-236h-819z" />
<glyph unicode="&#xb0;" horiz-adv-x="944" d="M51 1085q0 170 115 268.5t307 98.5q193 0 306.5 -98.5t113.5 -268.5q0 -172 -111.5 -273t-302.5 -101q-190 0 -309 102t-119 272zM322 1081q0 -88 46 -135t111 -47q63 0 104.5 47t41.5 135q0 92 -43 138.5t-107 46.5q-65 0 -109 -46t-44 -139z" />
<glyph unicode="&#xb1;" horiz-adv-x="1148" d="M51 195v317h355v217h-355v318h355v245h337v-245h355v-318h-355v-217h355v-317h-1047z" />
<glyph unicode="&#xb2;" horiz-adv-x="802" d="M82 1180q10 125 106.5 204.5t262.5 79.5q150 0 223.5 -63.5t73.5 -153.5q0 -76 -61.5 -135t-201.5 -123l-135 -67h387v-201h-643v192l266 166q111 72 111 148q0 27 -14.5 40t-38.5 13q-66 0 -76 -100h-260z" />
<glyph unicode="&#xb3;" horiz-adv-x="774" d="M41 969h274q2 -41 19.5 -56.5t48.5 -15.5q68 0 68 70q0 78 -91 77h-77v93h65q86 0 86 80q0 31 -16.5 48t-46.5 17q-59 0 -70 -78h-250q6 111 89 185.5t261 74.5q144 0 227 -58t83 -155q0 -129 -150 -155v-9q86 -20 125 -61t39 -106q0 -96 -85 -150.5t-234 -54.5 q-186 0 -269.5 64.5t-95.5 189.5z" />
<glyph unicode="&#xb4;" horiz-adv-x="565" d="M37 1225v237l493 238v-264z" />
<glyph unicode="&#xb5;" horiz-adv-x="1470" d="M160 -545v1688h348v-600q0 -121 62.5 -185.5t166.5 -64.5q102 0 163 63.5t61 182.5v604h352v-1143h-352v195q-45 -96 -137.5 -151.5t-215.5 -55.5q-53 0 -100 24v-557h-348z" />
<glyph unicode="&#xb6;" horiz-adv-x="1445" d="M45 997q0 119 51 219.5t161 161t275 60.5h754v-1438h-280v1174h-146v-1174h-280v559h-48q-166 0 -275.5 60.5t-160.5 160t-51 217.5z" />
<glyph unicode="&#xb7;" horiz-adv-x="530" d="M82 471v350h362v-350h-362z" />
<glyph unicode="&#xb8;" horiz-adv-x="655" d="M37 -362h260q86 0 86 57q0 27 -21.5 41t-64.5 14h-150v264h207v-102q103 4 183.5 -52.5t80.5 -174.5q0 -119 -82.5 -175.5t-201.5 -56.5h-297v185z" />
<glyph unicode="&#xb9;" horiz-adv-x="516" d="M51 1237v205h391v-721h-262v516h-129z" />
<glyph unicode="&#xba;" horiz-adv-x="933" d="M51 1081q0 106 51.5 191.5t145.5 132.5t219 47t219 -47t145.5 -132t51.5 -192q0 -106 -51.5 -190t-145.5 -133t-219 -49t-219 49t-145.5 134t-51.5 189zM317 1081q0 -80 42 -124t108 -44t107.5 44t41.5 124q0 82 -42 125t-107 43q-66 0 -108 -43t-42 -125z" />
<glyph unicode="&#xbb;" horiz-adv-x="1140" d="M102 246l181 358l-181 359h326l170 -359l-170 -358h-326zM569 246l179 358l-179 359h324l172 -359l-172 -358h-324z" />
<glyph unicode="&#xbc;" horiz-adv-x="1611" d="M100 1237v205h392v-721h-263v516h-129zM199 0l774 1448h342l-772 -1448h-344zM813 129v137l307 455h357v-447h82v-145h-82v-129h-265v129h-399zM1061 281h166v262z" />
<glyph unicode="&#xbd;" horiz-adv-x="1728" d="M102 1237v205h392v-721h-263v516h-129zM190 0l789 1452h342l-789 -1452h-342zM930 457q10 125 106.5 204.5t261.5 79.5q150 0 223.5 -63.5t73.5 -153.5q0 -76 -61 -135t-201 -123l-135 -67h387v-201h-643v192l266 166q111 72 111 148q0 27 -14.5 40t-38.5 13 q-66 0 -76 -100h-260z" />
<glyph unicode="&#xbe;" horiz-adv-x="1845" d="M131 969h275q2 -41 19 -56.5t48 -15.5q68 0 68 70q0 78 -90 77h-78v93h65q86 0 86 80q0 31 -16 48t-47 17q-59 0 -70 -78h-250q6 111 89 185.5t262 74.5q143 0 226 -58t83 -155q0 -129 -150 -155v-9q86 -20 125 -61t39 -106q0 -96 -85 -150.5t-234 -54.5 q-186 0 -269.5 64.5t-95.5 189.5zM457 0l743 1452h344l-745 -1452h-342zM1057 129v137l276 455h387v-447h82v-145h-82v-129h-262v129h-401zM1305 274h168v299z" />
<glyph unicode="&#xbf;" horiz-adv-x="1062" d="M145 35q0 195 126 305t337 115v182h330v-408h-138q-147 0 -229 -42t-82 -150q0 -70 39 -109t104 -39q74 0 116 44t42 112h330q4 -123 -52.5 -224.5t-171 -159.5t-276.5 -58q-217 0 -346 111.5t-129 320.5zM589 805v350h365v-350h-365z" />
<glyph unicode="&#xc0;" horiz-adv-x="1495" d="M16 0l531 1438h403l531 -1438h-373l-90 264h-543l-90 -264h-369zM451 1741v264l493 -238v-237zM565 530h363l-180 533z" />
<glyph unicode="&#xc1;" horiz-adv-x="1495" d="M16 0l531 1438h403l531 -1438h-373l-90 264h-543l-90 -264h-369zM549 1530v237l493 238v-264zM565 530h363l-180 533z" />
<glyph unicode="&#xc2;" horiz-adv-x="1495" d="M16 0l531 1438h403l531 -1438h-373l-90 264h-543l-90 -264h-369zM432 1532v231l317 172l318 -172v-231l-318 176zM565 530h363l-180 533z" />
<glyph unicode="&#xc3;" horiz-adv-x="1495" d="M16 0l531 1438h403l531 -1438h-373l-90 264h-543l-90 -264h-369zM335 1554q51 305 279 305q45 0 82 -14t82 -41q43 -23 65.5 -32t46.5 -9q76 0 91 96h176q-49 -303 -279 -303q-47 0 -85 14.5t-85 41.5q-37 20 -59.5 29.5t-46.5 9.5q-76 0 -90 -97h-177zM565 530h363 l-180 533z" />
<glyph unicode="&#xc4;" horiz-adv-x="1495" d="M16 0l531 1438h403l531 -1438h-373l-90 264h-543l-90 -264h-369zM393 1724q0 64 42 107t106 43q63 0 105 -43t42 -107q0 -61 -42 -103t-105 -42t-105.5 42t-42.5 103zM565 530h363l-180 533zM809 1724q0 64 42 107t103 43q63 0 105.5 -43t42.5 -107q0 -61 -42 -103 t-106 -42q-61 0 -103 42t-42 103z" />
<glyph unicode="&#xc5;" horiz-adv-x="1495" d="M16 0l531 1438h403l531 -1438h-373l-90 264h-543l-90 -264h-369zM500 1780q0 115 70.5 182t177.5 67q106 0 178 -68.5t72 -180.5q0 -113 -72 -180.5t-178 -67.5t-177 67.5t-71 180.5zM565 530h363l-180 533zM641 1780q0 -49 31 -79t76 -30q47 0 76.5 29.5t29.5 79.5 q0 49 -29.5 78.5t-76.5 29.5q-45 0 -76 -29.5t-31 -78.5z" />
<glyph unicode="&#xc6;" horiz-adv-x="1943" d="M6 0l742 1448h1118v-279h-535v-297h473v-266h-473v-325h535v-281h-887v248h-467l-125 -248h-381zM647 514h332v653z" />
<glyph unicode="&#xc7;" horiz-adv-x="1550" d="M78 725q0 215 87 383t246.5 261t370.5 93q277 0 458 -145.5t235 -392.5h-371q-41 100 -126 157.5t-202 57.5q-154 0 -248 -113t-94 -301t94.5 -300t247.5 -112q117 0 202 57.5t126 155.5h371q-53 -246 -234.5 -392t-458.5 -146q-211 0 -370.5 93t-246.5 261t-87 383z M572 -362h260q86 0 86 57q0 27 -21.5 41t-64.5 14h-150v264h207v-102q103 4 183.5 -52.5t80.5 -174.5q0 -119 -82.5 -175.5t-201.5 -56.5h-297v185z" />
<glyph unicode="&#xc8;" horiz-adv-x="1099" d="M121 0v1448h901v-279h-551v-303h490v-264h-490v-321h551v-281h-901zM275 1741v264l493 -238v-237z" />
<glyph unicode="&#xc9;" horiz-adv-x="1099" d="M121 0v1448h901v-279h-551v-303h490v-264h-490v-321h551v-281h-901zM373 1530v237l493 238v-264z" />
<glyph unicode="&#xca;" horiz-adv-x="1099" d="M121 0v1448h901v-279h-551v-303h490v-264h-490v-321h551v-281h-901zM256 1532v231l317 172l318 -172v-231l-318 176z" />
<glyph unicode="&#xcb;" horiz-adv-x="1099" d="M121 0v1448h901v-279h-551v-303h490v-264h-490v-321h551v-281h-901zM217 1724q0 64 42 107t106 43q63 0 105 -43t42 -107q0 -61 -42 -103t-105 -42t-105.5 42t-42.5 103zM633 1724q0 64 42 107t103 43q63 0 105.5 -43t42.5 -107q0 -61 -42 -103t-106 -42q-61 0 -103 42 t-42 103z" />
<glyph unicode="&#xcc;" horiz-adv-x="591" d="M0 1741v264l493 -238v-237zM121 0v1448h350v-1448h-350z" />
<glyph unicode="&#xcd;" horiz-adv-x="591" d="M98 1530v237l493 238v-264zM121 0v1448h350v-1448h-350z" />
<glyph unicode="&#xce;" horiz-adv-x="591" d="M-20 1532v231l317 172l318 -172v-231l-318 176zM121 0v1448h350v-1448h-350z" />
<glyph unicode="&#xcf;" horiz-adv-x="591" d="M-57 1724q0 64 42 107t106 43q63 0 105 -43t42 -107q0 -61 -42 -103t-105 -42t-105.5 42t-42.5 103zM121 0v1448h350v-1448h-350zM359 1724q0 64 42 107t103 43q63 0 105.5 -43t42.5 -107q0 -61 -42 -103t-106 -42q-61 0 -103 42t-42 103z" />
<glyph unicode="&#xd0;" horiz-adv-x="1521" d="M6 588v278h135v582h547q234 0 404 -90t261 -254t91 -377t-91 -378t-262 -257t-403 -92h-547v588h-135zM492 313h165q205 0 319 108.5t114 305.5t-114 305.5t-319 108.5h-165v-275h319v-278h-319v-275z" />
<glyph unicode="&#xd1;" horiz-adv-x="1527" d="M121 0v1448h350l586 -897v897h350v-1448h-350l-586 889v-889h-350zM352 1554q51 305 279 305q45 0 82 -14t82 -41q43 -23 65.5 -32t46.5 -9q76 0 91 96h176q-49 -303 -279 -303q-47 0 -85 14.5t-85 41.5q-37 20 -59.5 29.5t-46.5 9.5q-76 0 -90 -97h-177z" />
<glyph unicode="&#xd2;" horiz-adv-x="1615" d="M78 729q0 213 97 382t264 264t370 95q205 0 372 -95t263 -264t96 -382t-97 -383t-264 -265t-370 -95t-370 95t-264 265t-97 383zM434 729q0 -190 101.5 -303t273.5 -113q170 0 272.5 113t102.5 303t-101.5 303t-273.5 113t-273.5 -111.5t-101.5 -304.5zM512 1741v264 l493 -238v-237z" />
<glyph unicode="&#xd3;" horiz-adv-x="1615" d="M78 729q0 213 97 382t264 264t370 95q205 0 372 -95t263 -264t96 -382t-97 -383t-264 -265t-370 -95t-370 95t-264 265t-97 383zM434 729q0 -190 101.5 -303t273.5 -113q170 0 272.5 113t102.5 303t-101.5 303t-273.5 113t-273.5 -111.5t-101.5 -304.5zM610 1530v237 l493 238v-264z" />
<glyph unicode="&#xd4;" horiz-adv-x="1615" d="M78 729q0 213 97 382t264 264t370 95q205 0 372 -95t263 -264t96 -382t-97 -383t-264 -265t-370 -95t-370 95t-264 265t-97 383zM434 729q0 -190 101.5 -303t273.5 -113q170 0 272.5 113t102.5 303t-101.5 303t-273.5 113t-273.5 -111.5t-101.5 -304.5zM494 1532v231 l317 172l318 -172v-231l-318 176z" />
<glyph unicode="&#xd5;" horiz-adv-x="1615" d="M78 729q0 213 97 382t264 264t370 95q205 0 372 -95t263 -264t96 -382t-97 -383t-264 -265t-370 -95t-370 95t-264 265t-97 383zM397 1554q51 305 279 305q45 0 82 -14t82 -41q43 -23 65.5 -32t46.5 -9q76 0 91 96h176q-49 -303 -279 -303q-47 0 -85 14.5t-85 41.5 q-37 20 -59.5 29.5t-46.5 9.5q-76 0 -90 -97h-177zM434 729q0 -190 101.5 -303t273.5 -113q170 0 272.5 113t102.5 303t-101.5 303t-273.5 113t-273.5 -111.5t-101.5 -304.5z" />
<glyph unicode="&#xd6;" horiz-adv-x="1615" d="M78 729q0 213 97 382t264 264t370 95q205 0 372 -95t263 -264t96 -382t-97 -383t-264 -265t-370 -95t-370 95t-264 265t-97 383zM434 729q0 -190 101.5 -303t273.5 -113q170 0 272.5 113t102.5 303t-101.5 303t-273.5 113t-273.5 -111.5t-101.5 -304.5zM455 1724 q0 64 42 107t106 43q63 0 105 -43t42 -107q0 -61 -42 -103t-105 -42t-105.5 42t-42.5 103zM871 1724q0 64 42 107t103 43q63 0 105.5 -43t42.5 -107q0 -61 -42 -103t-106 -42q-61 0 -103 42t-42 103z" />
<glyph unicode="&#xd7;" horiz-adv-x="1132" d="M51 442l283 285l-277 277l234 231l274 -274l271 272l229 -223l-272 -277l288 -289l-233 -229l-287 287l-282 -285z" />
<glyph unicode="&#xd8;" horiz-adv-x="1615" d="M59 2l201 223q-88 98 -136 227.5t-48 276.5q0 213 97 382t264 264t370 95q127 0 239.5 -36.5t204.5 -106.5l115 127h190l-200 -223q88 -96 135 -225t47 -277q0 -213 -97.5 -383t-264 -265t-369.5 -95q-125 0 -237.5 36.5t-204.5 106.5l-115 -127h-191zM432 729 q1 -146 60 -246l536 596q-90 66 -221 66q-172 0 -273.5 -111.5t-101.5 -304.5zM588 377q92 -63 219 -64q170 0 272.5 113t102.5 303q-1 144 -60 244z" />
<glyph unicode="&#xd9;" horiz-adv-x="1427" d="M113 612v836h348v-836q0 -143 64.5 -219t187.5 -76t187.5 76t64.5 219v836h350v-836q0 -205 -80 -345t-218 -210.5t-312 -70.5t-307.5 69.5t-209 211t-75.5 345.5zM416 1741v264l493 -238v-237z" />
<glyph unicode="&#xda;" horiz-adv-x="1427" d="M113 612v836h348v-836q0 -143 64.5 -219t187.5 -76t187.5 76t64.5 219v836h350v-836q0 -205 -80 -345t-218 -210.5t-312 -70.5t-307.5 69.5t-209 211t-75.5 345.5zM514 1530v237l493 238v-264z" />
<glyph unicode="&#xdb;" horiz-adv-x="1427" d="M113 612v836h348v-836q0 -143 64.5 -219t187.5 -76t187.5 76t64.5 219v836h350v-836q0 -205 -80 -345t-218 -210.5t-312 -70.5t-307.5 69.5t-209 211t-75.5 345.5zM397 1532v231l317 172l318 -172v-231l-318 176z" />
<glyph unicode="&#xdc;" horiz-adv-x="1427" d="M113 612v836h348v-836q0 -143 64.5 -219t187.5 -76t187.5 76t64.5 219v836h350v-836q0 -205 -80 -345t-218 -210.5t-312 -70.5t-307.5 69.5t-209 211t-75.5 345.5zM358 1724q0 64 42 107t106 43q63 0 105 -43t42 -107q0 -61 -42 -103t-105 -42t-105.5 42t-42.5 103z M774 1724q0 64 42 107t103 43q63 0 105.5 -43t42.5 -107q0 -61 -42 -103t-106 -42q-61 0 -103 42t-42 103z" />
<glyph unicode="&#xdd;" horiz-adv-x="1386" d="M16 1448h402l278 -590l279 590h397l-502 -967v-481h-352v481zM496 1530v237l493 238v-264z" />
<glyph unicode="&#xde;" horiz-adv-x="1267" d="M121 0v1448h348v-264h219q258 0 393.5 -125t135.5 -334q0 -131 -60.5 -233.5t-179.5 -160t-289 -57.5h-217v-274h-350zM471 539h178q211 0 211 186q0 190 -211 190h-178v-376z" />
<glyph unicode="&#xdf;" horiz-adv-x="1488" d="M121 0v958q0 578 559 578q150 0 256 -47t160.5 -127t54.5 -176q0 -88 -40 -152.5t-134 -113.5l164 -95q168 -94 239.5 -196.5t71.5 -251.5q0 -111 -52 -200t-148.5 -141t-225.5 -52q-219 0 -333.5 115.5t-117.5 320.5h287q6 -63 40 -97t91 -34q59 0 89 33.5t30 83.5 q0 53 -30.5 93t-110.5 85l-305 170v137l41 24q45 27 65.5 62t20.5 80q0 70 -41 115t-113 45q-76 0 -123 -48.5t-47 -136.5l2 -1032h-350z" />
<glyph unicode="&#xe0;" d="M61 571q0 180 64.5 312.5t176.5 203t253 70.5q131 0 225 -59.5t140 -161.5v207h348v-1143h-348v207q-45 -102 -139.5 -161.5t-225.5 -59.5q-141 0 -253 70.5t-176.5 203.5t-64.5 311zM369 1436v264l493 -238v-237zM418 571q0 -131 68.5 -204.5t181.5 -73.5 q111 0 181.5 75.5t70.5 202.5q0 129 -71 204t-181 75q-113 0 -181.5 -74t-68.5 -205z" />
<glyph unicode="&#xe1;" d="M61 571q0 180 64.5 312.5t176.5 203t253 70.5q131 0 225 -59.5t140 -161.5v207h348v-1143h-348v207q-45 -102 -139.5 -161.5t-225.5 -59.5q-141 0 -253 70.5t-176.5 203.5t-64.5 311zM418 571q0 -131 68.5 -204.5t181.5 -73.5q111 0 181.5 75.5t70.5 202.5q0 129 -71 204 t-181 75q-113 0 -181.5 -74t-68.5 -205zM467 1225v237l493 238v-264z" />
<glyph unicode="&#xe2;" d="M61 571q0 180 64.5 312.5t176.5 203t253 70.5q131 0 225 -59.5t140 -161.5v207h348v-1143h-348v207q-45 -102 -139.5 -161.5t-225.5 -59.5q-141 0 -253 70.5t-176.5 203.5t-64.5 311zM350 1227v231l317 172l318 -172v-231l-318 176zM418 571q0 -131 68.5 -204.5 t181.5 -73.5q111 0 181.5 75.5t70.5 202.5q0 129 -71 204t-181 75q-113 0 -181.5 -74t-68.5 -205z" />
<glyph unicode="&#xe3;" d="M61 571q0 180 64.5 312.5t176.5 203t253 70.5q131 0 225 -59.5t140 -161.5v207h348v-1143h-348v207q-45 -102 -139.5 -161.5t-225.5 -59.5q-141 0 -253 70.5t-176.5 203.5t-64.5 311zM253 1249q51 305 279 305q45 0 82 -14t82 -41q43 -23 65.5 -32t46.5 -9q76 0 91 96 h176q-49 -303 -279 -303q-47 0 -85 14.5t-85 41.5q-37 20 -59.5 29.5t-46.5 9.5q-76 0 -90 -97h-177zM418 571q0 -131 68.5 -204.5t181.5 -73.5q111 0 181.5 75.5t70.5 202.5q0 129 -71 204t-181 75q-113 0 -181.5 -74t-68.5 -205z" />
<glyph unicode="&#xe4;" d="M61 571q0 180 64.5 312.5t176.5 203t253 70.5q131 0 225 -59.5t140 -161.5v207h348v-1143h-348v207q-45 -102 -139.5 -161.5t-225.5 -59.5q-141 0 -253 70.5t-176.5 203.5t-64.5 311zM311 1419q0 64 42 107t106 43q63 0 105 -43t42 -107q0 -61 -42 -103t-105 -42 t-105.5 42t-42.5 103zM418 571q0 -131 68.5 -204.5t181.5 -73.5q111 0 181.5 75.5t70.5 202.5q0 129 -71 204t-181 75q-113 0 -181.5 -74t-68.5 -205zM727 1419q0 64 42 107t103 43q63 0 105.5 -43t42.5 -107q0 -61 -42 -103t-106 -42q-61 0 -103 42t-42 103z" />
<glyph unicode="&#xe5;" d="M61 571q0 180 64.5 312.5t176.5 203t253 70.5q131 0 225 -59.5t140 -161.5v207h348v-1143h-348v207q-45 -102 -139.5 -161.5t-225.5 -59.5q-141 0 -253 70.5t-176.5 203.5t-64.5 311zM418 571q0 -131 68.5 -204.5t181.5 -73.5q111 0 181.5 75.5t70.5 202.5q0 129 -71 204 t-181 75q-113 0 -181.5 -74t-68.5 -205zM418 1475q0 115 70.5 182t177.5 67q106 0 178 -68.5t72 -180.5q0 -113 -72 -180.5t-178 -67.5t-177 67.5t-71 180.5zM559 1475q0 -49 31 -79t76 -30q47 0 76.5 29.5t29.5 79.5q0 49 -29.5 78.5t-76.5 29.5q-45 0 -76 -29.5t-31 -78.5 z" />
<glyph unicode="&#xe6;" horiz-adv-x="2199" d="M61 571q0 180 64.5 312.5t176.5 203t253 70.5q131 0 225 -59.5t140 -161.5v207h348v-207q41 104 141 162.5t238 58.5q147 0 257.5 -69.5t172 -195.5t61.5 -290q0 -53 -8 -94h-850q10 -127 76.5 -186.5t169.5 -59.5q90 0 147.5 38t75.5 106h371q-35 -186 -162 -303 t-311 -117q-137 0 -236.5 58t-142.5 165v-209h-348v207q-45 -102 -139.5 -161.5t-225.5 -59.5q-141 0 -253 70.5t-176.5 203.5t-64.5 311zM418 571q0 -131 68.5 -204.5t181.5 -73.5q110 0 181 75.5t71 202.5q0 129 -71 204t-181 75q-113 0 -181.5 -74t-68.5 -205zM1280 655 h504q4 111 -67.5 168.5t-180.5 57.5q-102 0 -173 -54.5t-83 -171.5z" />
<glyph unicode="&#xe7;" horiz-adv-x="1257" d="M61 571q0 180 73 312.5t204 203t299 70.5q221 0 370.5 -122t188.5 -335h-371q-16 74 -67 115t-129 41q-92 0 -151.5 -72.5t-59.5 -212.5q0 -139 59.5 -211.5t151.5 -72.5q78 0 129 41t67 114h371q-39 -213 -188.5 -334.5t-370.5 -121.5q-168 0 -298 70.5t-204 203.5 t-74 311zM365 -362h260q86 0 86 57q0 27 -21.5 41t-64.5 14h-150v264h207v-102q103 4 183.5 -52.5t80.5 -174.5q0 -119 -82.5 -175.5t-201.5 -56.5h-297v185z" />
<glyph unicode="&#xe8;" horiz-adv-x="1267" d="M61 571q0 180 73 312.5t204 203t299 70.5q170 0 299 -69.5t199.5 -195.5t70.5 -290q0 -43 -10 -94h-793q6 -129 65.5 -185.5t152.5 -56.5q78 0 129 39t67 101h371q-23 -121 -98.5 -216.5t-192.5 -149.5t-260 -54q-168 0 -298 70.5t-204 203.5t-74 311zM338 1436v264 l493 -238v-237zM406 655h446q2 113 -60.5 169.5t-154.5 56.5q-96 0 -159.5 -57.5t-71.5 -168.5z" />
<glyph unicode="&#xe9;" horiz-adv-x="1267" d="M61 571q0 180 73 312.5t204 203t299 70.5q170 0 299 -69.5t199.5 -195.5t70.5 -290q0 -43 -10 -94h-793q6 -129 65.5 -185.5t152.5 -56.5q78 0 129 39t67 101h371q-23 -121 -98.5 -216.5t-192.5 -149.5t-260 -54q-168 0 -298 70.5t-204 203.5t-74 311zM406 655h446 q2 113 -60.5 169.5t-154.5 56.5q-96 0 -159.5 -57.5t-71.5 -168.5zM436 1225v237l493 238v-264z" />
<glyph unicode="&#xea;" horiz-adv-x="1267" d="M61 571q0 180 73 312.5t204 203t299 70.5q170 0 299 -69.5t199.5 -195.5t70.5 -290q0 -43 -10 -94h-793q6 -129 65.5 -185.5t152.5 -56.5q78 0 129 39t67 101h371q-23 -121 -98.5 -216.5t-192.5 -149.5t-260 -54q-168 0 -298 70.5t-204 203.5t-74 311zM320 1227v231 l317 172l318 -172v-231l-318 176zM406 655h446q2 113 -60.5 169.5t-154.5 56.5q-96 0 -159.5 -57.5t-71.5 -168.5z" />
<glyph unicode="&#xeb;" horiz-adv-x="1267" d="M61 571q0 180 73 312.5t204 203t299 70.5q170 0 299 -69.5t199.5 -195.5t70.5 -290q0 -43 -10 -94h-793q6 -129 65.5 -185.5t152.5 -56.5q78 0 129 39t67 101h371q-23 -121 -98.5 -216.5t-192.5 -149.5t-260 -54q-168 0 -298 70.5t-204 203.5t-74 311zM280 1419 q0 64 42 107t106 43q63 0 105 -43t42 -107q0 -61 -42 -103t-105 -42t-105.5 42t-42.5 103zM406 655h446q2 113 -60.5 169.5t-154.5 56.5q-96 0 -159.5 -57.5t-71.5 -168.5zM696 1419q0 64 42 107t103 43q63 0 105.5 -43t42.5 -107q0 -61 -42 -103t-106 -42q-61 0 -103 42 t-42 103z" />
<glyph unicode="&#xec;" horiz-adv-x="669" d="M39 1436v264l493 -238v-237zM160 0v1143h350v-1143h-350z" />
<glyph unicode="&#xed;" horiz-adv-x="669" d="M135 1225v237l493 238v-264zM160 0v1143h350v-1143h-350z" />
<glyph unicode="&#xee;" horiz-adv-x="669" d="M19 1227v231l317 172l318 -172v-231l-318 176zM160 0v1143h350v-1143h-350z" />
<glyph unicode="&#xef;" horiz-adv-x="669" d="M-21 1419q0 64 42 107t106 43q63 0 105 -43t42 -107q0 -61 -42 -103t-105 -42t-105.5 42t-42.5 103zM160 0v1143h350v-1143h-350zM395 1419q0 64 42 107t103 43q63 0 105.5 -43t42.5 -107q0 -61 -42 -103t-106 -42q-61 0 -103 42t-42 103z" />
<glyph unicode="&#xf0;" horiz-adv-x="1318" d="M61 584q0 174 74 303t203 198.5t291 69.5q72 0 137 -28.5t111 -86.5q-45 131 -121 244l-221 -67v120l145 45q-66 74 -135 134h307l63 -62l183 55v-120l-101 -31q123 -158 191.5 -340t68.5 -373q0 -209 -77.5 -357.5t-210.5 -224t-299 -75.5q-168 0 -307.5 73.5 t-220.5 209t-81 313.5zM420 580q0 -139 73.5 -214t176.5 -75q98 0 163.5 71.5t65.5 208.5q0 139 -69.5 210t-165.5 71q-102 0 -173 -68.5t-71 -203.5z" />
<glyph unicode="&#xf1;" horiz-adv-x="1384" d="M121 0v1143h350v-209q49 102 146.5 161.5t228.5 59.5q196 0 312 -131t116 -360v-664h-350v623q0 115 -60.5 179t-161.5 64q-106 0 -168.5 -67.5t-62.5 -192.5v-606h-350zM284 1249q51 305 279 305q45 0 82 -14t82 -41q43 -23 65.5 -32t46.5 -9q76 0 91 96h176 q-49 -303 -279 -303q-47 0 -85 14.5t-85 41.5q-37 20 -59.5 29.5t-46.5 9.5q-76 0 -90 -97h-177z" />
<glyph unicode="&#xf2;" horiz-adv-x="1308" d="M61 571q0 178 77 311.5t212 204t305 70.5t304.5 -70.5t211 -203.5t76.5 -312q0 -178 -76.5 -311t-211 -203.5t-304.5 -70.5t-305 70.5t-212 203.5t-77 311zM359 1436v264l493 -238v-237zM418 571q0 -137 68.5 -208.5t168.5 -71.5t168 71.5t68 208.5t-67.5 210t-168.5 73 q-100 0 -168.5 -72.5t-68.5 -210.5z" />
<glyph unicode="&#xf3;" horiz-adv-x="1308" d="M61 571q0 178 77 311.5t212 204t305 70.5t304.5 -70.5t211 -203.5t76.5 -312q0 -178 -76.5 -311t-211 -203.5t-304.5 -70.5t-305 70.5t-212 203.5t-77 311zM418 571q0 -137 68.5 -208.5t168.5 -71.5t168 71.5t68 208.5t-67.5 210t-168.5 73q-100 0 -168.5 -72.5 t-68.5 -210.5zM455 1225v237l493 238v-264z" />
<glyph unicode="&#xf4;" horiz-adv-x="1308" d="M61 571q0 178 77 311.5t212 204t305 70.5t304.5 -70.5t211 -203.5t76.5 -312q0 -178 -76.5 -311t-211 -203.5t-304.5 -70.5t-305 70.5t-212 203.5t-77 311zM338 1227v231l317 172l318 -172v-231l-318 176zM418 571q0 -137 68.5 -208.5t168.5 -71.5t168 71.5t68 208.5 t-67.5 210t-168.5 73q-100 0 -168.5 -72.5t-68.5 -210.5z" />
<glyph unicode="&#xf5;" horiz-adv-x="1308" d="M61 571q0 178 77 311.5t212 204t305 70.5t304.5 -70.5t211 -203.5t76.5 -312q0 -178 -76.5 -311t-211 -203.5t-304.5 -70.5t-305 70.5t-212 203.5t-77 311zM243 1249q51 305 279 305q45 0 82 -14t82 -41q43 -23 65.5 -32t46.5 -9q76 0 91 96h176q-49 -303 -279 -303 q-47 0 -85 14.5t-85 41.5q-37 20 -59.5 29.5t-46.5 9.5q-76 0 -90 -97h-177zM418 571q0 -137 68.5 -208.5t168.5 -71.5t168 71.5t68 208.5t-67.5 210t-168.5 73q-100 0 -168.5 -72.5t-68.5 -210.5z" />
<glyph unicode="&#xf6;" horiz-adv-x="1308" d="M61 571q0 178 77 311.5t212 204t305 70.5t304.5 -70.5t211 -203.5t76.5 -312q0 -178 -76.5 -311t-211 -203.5t-304.5 -70.5t-305 70.5t-212 203.5t-77 311zM301 1419q0 64 42 107t106 43q63 0 105 -43t42 -107q0 -61 -42 -103t-105 -42t-105.5 42t-42.5 103zM418 571 q0 -137 68.5 -208.5t168.5 -71.5t168 71.5t68 208.5t-67.5 210t-168.5 73q-100 0 -168.5 -72.5t-68.5 -210.5zM717 1419q0 64 42 107t103 43q63 0 105.5 -43t42.5 -107q0 -61 -42 -103t-106 -42q-61 0 -103 42t-42 103z" />
<glyph unicode="&#xf7;" horiz-adv-x="1148" d="M51 559v318h1047v-318h-1047zM391 74v352h363v-352h-363zM391 1012v350h363v-350h-363z" />
<glyph unicode="&#xf8;" horiz-adv-x="1286" d="M35 0l155 170q-141 162 -141 401q0 178 77 311.5t212 204t305 70.5q209 0 358 -102l80 88h170l-155 -170q139 -158 139 -402q0 -178 -77 -311t-211 -203.5t-304 -70.5q-207 0 -356 102l-82 -88h-170zM406 571q-1 -84 24 -139l348 379q-57 43 -135 43q-100 0 -168.5 -72.5 t-68.5 -210.5zM508 332q55 -41 135 -41q100 0 168 71.5t68 208.5q0 83 -25 138z" />
<glyph unicode="&#xf9;" horiz-adv-x="1378" d="M104 479v664h349v-621q0 -117 60 -181.5t163 -64.5q106 0 167.5 68t61.5 193v606h352v-1143h-352v207q-49 -100 -146 -159.5t-227 -59.5q-197 0 -312.5 131t-115.5 360zM383 1436v264l493 -238v-237z" />
<glyph unicode="&#xfa;" horiz-adv-x="1378" d="M104 479v664h349v-621q0 -117 60 -181.5t163 -64.5q106 0 167.5 68t61.5 193v606h352v-1143h-352v207q-49 -100 -146 -159.5t-227 -59.5q-197 0 -312.5 131t-115.5 360zM481 1225v237l493 238v-264z" />
<glyph unicode="&#xfb;" horiz-adv-x="1378" d="M104 479v664h349v-621q0 -117 60 -181.5t163 -64.5q106 0 167.5 68t61.5 193v606h352v-1143h-352v207q-49 -100 -146 -159.5t-227 -59.5q-197 0 -312.5 131t-115.5 360zM365 1227v231l317 172l318 -172v-231l-318 176z" />
<glyph unicode="&#xfc;" horiz-adv-x="1378" d="M104 479v664h349v-621q0 -117 60 -181.5t163 -64.5q106 0 167.5 68t61.5 193v606h352v-1143h-352v207q-49 -100 -146 -159.5t-227 -59.5q-197 0 -312.5 131t-115.5 360zM326 1419q0 64 42 107t106 43q63 0 105 -43t42 -107q0 -61 -42 -103t-105 -42t-105.5 42t-42.5 103z M742 1419q0 64 42 107t103 43q63 0 105.5 -43t42.5 -107q0 -61 -42 -103t-106 -42q-61 0 -103 42t-42 103z" />
<glyph unicode="&#xfd;" horiz-adv-x="1298" d="M-6 1143h391l274 -701l256 701h388l-713 -1688h-385l268 588zM449 1225v237l493 238v-264z" />
<glyph unicode="&#xfe;" d="M121 -545v2061h350v-539q111 176 338 176q143 0 262 -74.5t187.5 -208t68.5 -305.5q0 -170 -68.5 -301t-187.5 -203.5t-262 -72.5q-221 0 -338 196v-729h-350zM471 571q0 -135 75 -206.5t177 -71.5t175 68.5t73 203.5t-73 209t-175 74t-177 -71.5t-75 -205.5z" />
<glyph unicode="&#xff;" horiz-adv-x="1298" d="M-6 1143h391l274 -701l256 701h388l-713 -1688h-385l268 588zM295 1419q0 64 42 107t106 43q63 0 105 -43t42 -107q0 -61 -42 -103t-105 -42t-105.5 42t-42.5 103zM711 1419q0 64 42 107t103 43q63 0 105.5 -43t42.5 -107q0 -61 -42 -103t-106 -42q-61 0 -103 42t-42 103 z" />
<glyph unicode="&#x152;" horiz-adv-x="2177" d="M78 723q0 217 90 387t252 265t364 95q129 0 240 -54t174 -148v180h901v-279h-549v-303h488v-264h-488v-321h549v-281h-901v180q-61 -94 -172 -146t-242 -57q-203 0 -364.5 95.5t-251.5 264.5t-90 386zM434 723q0 -195 101.5 -308.5t273.5 -113.5q170 0 272.5 114.5 t102.5 307.5q0 195 -101.5 308.5t-273.5 113.5t-273.5 -113.5t-101.5 -308.5z" />
<glyph unicode="&#x153;" horiz-adv-x="2150" d="M61 571q0 178 77 311.5t212 204t305 70.5q131 0 238.5 -48t177.5 -136q68 90 173.5 137t236.5 47q170 0 299 -69.5t199.5 -195.5t70.5 -290q0 -43 -10 -94h-793q6 -129 65.5 -185.5t151.5 -56.5q76 0 127 39t70 101h371q-23 -121 -100 -216.5t-193.5 -149.5t-257.5 -54 q-129 0 -235.5 48t-174.5 136q-70 -88 -178.5 -136t-237.5 -48q-170 0 -305 70.5t-212 203.5t-77 311zM418 571q0 -137 68.5 -208.5t168.5 -71.5q101 0 168.5 71.5t67.5 208.5t-67.5 210t-168.5 73q-100 0 -168.5 -72.5t-68.5 -210.5zM1249 655h447q2 113 -60.5 169.5 t-154.5 56.5q-96 0 -160 -57.5t-72 -168.5z" />
<glyph unicode="&#x178;" horiz-adv-x="1386" d="M16 1448h402l278 -590l279 590h397l-502 -967v-481h-352v481zM340 1724q0 64 42 107t106 43q63 0 105 -43t42 -107q0 -61 -42 -103t-105 -42t-105.5 42t-42.5 103zM756 1724q0 64 42 107t103 43q63 0 105.5 -43t42.5 -107q0 -61 -42 -103t-106 -42q-61 0 -103 42t-42 103 z" />
<glyph unicode="&#x2c6;" horiz-adv-x="706" d="M37 1227v231l317 172l318 -172v-231l-318 176z" />
<glyph unicode="&#x2dc;" horiz-adv-x="862" d="M20 1249q51 305 279 305q45 0 82 -14t82 -41q43 -23 65.5 -32t46.5 -9q76 0 91 96h176q-49 -303 -279 -303q-47 0 -85 14.5t-85 41.5q-37 20 -59.5 29.5t-46.5 9.5q-76 0 -90 -97h-177z" />
<glyph unicode="&#x2000;" horiz-adv-x="1016" />
<glyph unicode="&#x2001;" horiz-adv-x="2032" />
<glyph unicode="&#x2002;" horiz-adv-x="1016" />
<glyph unicode="&#x2003;" horiz-adv-x="2032" />
<glyph unicode="&#x2004;" horiz-adv-x="677" />
<glyph unicode="&#x2005;" horiz-adv-x="508" />
<glyph unicode="&#x2006;" horiz-adv-x="338" />
<glyph unicode="&#x2007;" horiz-adv-x="338" />
<glyph unicode="&#x2008;" horiz-adv-x="254" />
<glyph unicode="&#x2009;" horiz-adv-x="406" />
<glyph unicode="&#x200a;" horiz-adv-x="112" />
<glyph unicode="&#x2010;" horiz-adv-x="1112" d="M12 573v291h903v-291h-903z" />
<glyph unicode="&#x2011;" horiz-adv-x="1112" d="M12 573v291h903v-291h-903z" />
<glyph unicode="&#x2012;" horiz-adv-x="1112" d="M12 573v291h903v-291h-903z" />
<glyph unicode="&#x2013;" horiz-adv-x="1347" d="M104 573v291h1137v-291h-1137z" />
<glyph unicode="&#x2014;" horiz-adv-x="1828" d="M104 573v291h1620v-291h-1620z" />
<glyph unicode="&#x2018;" horiz-adv-x="493" d="M92 1415q0 139 74 224t215 85v-129q-109 0 -109 -139v-31h131v-254h-268q-43 123 -43 244z" />
<glyph unicode="&#x2019;" horiz-adv-x="493" d="M94 1473v251h268q39 -116 39 -241q0 -141 -72.5 -226.5t-211.5 -85.5v132q106 0 106 137v33h-129z" />
<glyph unicode="&#x201a;" horiz-adv-x="495" d="M57 -98v315h289q62 -119 62 -258q0 -141 -75 -233.5t-233 -92.5v129q55 0 81 25t26 94v21h-150z" />
<glyph unicode="&#x201c;" horiz-adv-x="884" d="M92 1415q0 139 74 224t215 85v-129q-109 0 -109 -139v-31h131v-254h-268q-43 123 -43 244zM481 1415q0 139 73 224t214 85v-129q-106 0 -106 -139v-31h129v-254h-269q-41 125 -41 244z" />
<glyph unicode="&#x201d;" horiz-adv-x="884" d="M94 1473v251h268q39 -116 39 -241q0 -141 -72.5 -226.5t-211.5 -85.5v132q106 0 106 137v33h-129zM481 1473v251h269q43 -128 43 -241q0 -141 -74 -226.5t-215 -85.5v132q109 0 108 137v33h-131z" />
<glyph unicode="&#x201e;" horiz-adv-x="884" d="M94 0v251h268q39 -116 39 -241q0 -141 -72.5 -226.5t-211.5 -85.5v132q106 0 106 137v33h-129zM481 0v251h269q43 -128 43 -241q0 -141 -74 -226.5t-215 -85.5v132q109 0 108 137v33h-131z" />
<glyph unicode="&#x2022;" horiz-adv-x="954" d="M170 682q0 86 41 157.5t111.5 112.5t154.5 41q86 0 157 -41t111.5 -112.5t40.5 -157.5q0 -84 -40.5 -154.5t-111.5 -110.5t-157 -40q-84 0 -154.5 40t-111.5 110.5t-41 154.5z" />
<glyph unicode="&#x2026;" horiz-adv-x="1476" d="M59 0v350h363v-350h-363zM557 0v350h363v-350h-363zM1052 0v350h363v-350h-363z" />
<glyph unicode="&#x202f;" horiz-adv-x="406" />
<glyph unicode="&#x2039;" horiz-adv-x="690" d="M92 604l174 359h322l-176 -359l176 -358h-322z" />
<glyph unicode="&#x203a;" horiz-adv-x="690" d="M102 246l181 358l-181 359h326l170 -359l-170 -358h-326z" />
<glyph unicode="&#x205f;" horiz-adv-x="508" />
<glyph unicode="&#x20ac;" horiz-adv-x="1642" d="M33 504v162h137q-2 20 -2 59t2 57h-137v162h162q59 240 238 379t441 139q274 0 456.5 -145.5t234.5 -392.5h-369q-41 100 -126 157.5t-202 57.5q-100 0 -179 -51.5t-122 -143.5h361v-162h-402q-2 -18 -2 -57q0 -41 2 -59h402v-162h-359q43 -90 121 -140.5t178 -50.5 q117 0 202 57.5t126 155.5h369q-51 -246 -233.5 -392t-457.5 -146q-262 0 -441 139t-238 377h-162z" />
<glyph unicode="&#x2122;" horiz-adv-x="1808" d="M61 1243v205h619v-205h-184v-512h-248v512h-187zM776 731v717h334l150 -420l176 420h305v-717h-228l-6 414l-174 -414h-168l-174 438v-438h-215z" />
<glyph unicode="&#x25fc;" horiz-adv-x="1146" d="M0 0v1147h1147v-1147h-1147z" />
<glyph unicode="&#xfb01;" horiz-adv-x="1347" d="M27 848v295h137v12q0 213 119.5 328.5t349.5 115.5q45 0 67 -2v-301l-34 2q-80 0 -114 -36.5t-38 -118.5h680v-1143h-352v848h-328v-848h-350v848h-137zM809 1427q0 78 57.5 126.5t153.5 48.5q94 0 151.5 -48.5t57.5 -126.5t-57.5 -127t-151.5 -49q-96 0 -153.5 48.5 t-57.5 127.5z" />
<glyph unicode="&#xfb02;" horiz-adv-x="1300" d="M27 848v295h137v12q0 213 124 328.5t359 115.5q49 0 74 -2v-301l-39 2q-86 0 -125 -36.5t-43 -118.5h207v-295h-207v-848h-350v848h-137zM840 0v1516h350v-1516h-350z" />
</font>
</defs>
</svg>
